<?xml version="1.0" standalone="no"?>
<!DOCTYPE svg PUBLIC "-//W3C//DTD SVG 1.1//EN" "http://www.w3.org/Graphics/SVG/1.1/DTD/svg11.dtd" >
<svg>
<metadata>
Created by FontForge 20090914 at Tue Nov 29 07:01:08 2011
 By www-data
Generated by Fontographer 4.0
</metadata>
<defs>
<font id="Angelina" horiz-adv-x="2576" >
  <font-face 
    font-family="Angelina"
    font-weight="400"
    font-stretch="normal"
    units-per-em="2100"
    panose-1="0 0 4 0 0 0 0 0 0 0"
    ascent="1680"
    descent="-420"
    x-height="644.001"
    cap-height="1205"
    bbox="-505.001 -835 1691.13 1364"
    underline-thickness="20"
    underline-position="-123"
    unicode-range="U+0020-U+F002"
  />
<missing-glyph horiz-adv-x="1050" 
d="M131 0v1300h788v-1300h-788zM263 131h525v1038h-525v-1038z" />
    <glyph glyph-name=".notdef" horiz-adv-x="1050" 
d="M131 0v1300h788v-1300h-788zM263 131h525v1038h-525v-1038z" />
    <glyph glyph-name="space" unicode=" " horiz-adv-x="544" 
 />
    <glyph glyph-name="exclam" unicode="!" horiz-adv-x="418" 
d="M280 91c-8 -6 -22 -4.66699 -42 4c-40 16.667 -74.667 55.667 -104 117c-24 50 -37.667 97 -41 141c-2 18 -3 40.333 -3 67c0 130 12.667 268.667 38 416c28.667 168.667 61 253 97 253c12 0 23.5 -5.5 34.5 -16.5s16.5 -22.5 16.5 -34.5c0 -4 -0.666992 -7.66699 -2 -11
c-60 -164 -90 -367.333 -90 -610c0 -146.667 29 -241 87 -283c19.333 -18.667 22.333 -33 9 -43zM215 -137c-41.333 0 -62.001 15.333 -62.001 46c0 37.333 21.333 56 64 56c44.667 0 67 -17.333 67 -52c0 -11.333 -8.66699 -22.5 -26 -33.5s-31.666 -16.5 -42.999 -16.5z
" />
    <glyph glyph-name="quotedbl" unicode="&#x22;" horiz-adv-x="426" 
d="M228 592c-8.66699 -6 -17 -9 -25 -9c-16.667 0 -25 7.66699 -25 23c0 11.333 6.33301 22 19 32c37.333 28.667 56 85 56 169c0 16.667 -1.33301 32.667 -4 48c-1.33301 10.667 6 22 22 34s31.667 18 47 18c25.333 0 38 -18.333 38 -55c0 -39.333 -12.333 -85 -37 -137
c-26 -55.333 -56.333 -96.333 -91 -123zM95 592c-8.66699 -6 -17.001 -9 -25.001 -9c-16.667 0 -25 7.66699 -25 23c0 11.333 6.33301 22 19 32c37.333 28.667 56 85 56 169c0 16.667 -1.33301 32.667 -4 48c-1.33301 10.667 5.83398 22 21.501 34s31.5 18 47.5 18
c25.333 0 38 -18.333 38 -55c0 -39.333 -12.333 -85 -37 -137c-26 -55.333 -56.333 -96.333 -91 -123z" />
    <glyph glyph-name="numbersign" unicode="#" horiz-adv-x="1362" 
d="M680 113c-2 -20.667 -10.998 -30.998 -26.998 -30.998c-23.333 0 -33 15.333 -29 46c19.333 159.333 80.666 358.666 183.999 597.999c107.333 249.333 214.333 430.666 321 543.999c7.33301 8.66699 17 12.667 29 12v0c17.333 0 31 -6.66699 41 -20
c11.333 -14.667 10.666 -28.667 -2.00098 -42c-103.333 -110.667 -210.833 -286 -322.5 -526s-176.5 -433.667 -194.5 -581zM1322 884.002c-1.33301 -25.333 -12.001 -37.999 -32.001 -37.999c-3.33301 0 -6.66602 0.333008 -9.99902 1c-94.667 24 -222.334 36 -383.001 36
c-154.667 0 -309 -11 -463 -33c-159.333 -22 -283.666 -51.333 -372.999 -88c-6 -2.66699 -11.667 -4 -17 -4c-17.333 0 -26 8.33301 -26 25c0 16 9.66699 28 29 36c102 41.333 239.167 75.666 411.5 102.999s337.833 41 496.5 41c137.333 0 249 -10.667 335 -32
c22 -5.33301 32.667 -21 32 -47zM1331 570.003c-0.666992 -25.333 -11.333 -37.999 -32 -37.999c-3.33301 0 -6.66602 0.333008 -9.99902 1c-94.667 24 -222 36 -382 36c-154.667 0 -309 -10.667 -463 -32c-160 -22.667 -284.667 -52.334 -374 -89.001
c-6 -2 -11.667 -3 -17 -3c-17.333 0 -26 8.33301 -26 25c0 16 9.66699 27.667 29 35c102 42 239.167 76.667 411.5 104s338.166 41 497.499 41c136.667 0 248.334 -11 335.001 -33c21.333 -5.33301 31.666 -21 30.999 -47zM281.002 44.0039
c-2 -20.667 -10.999 -30.999 -26.999 -30.999c-23.333 0 -33 15.333 -29 46c18.667 160 80 359.333 184 598c107.333 249.333 214.333 430.666 321 543.999c7.33301 8.66699 17 13 29 13v0c17.333 0 31 -7 41 -21c11.333 -14.667 10.666 -28.667 -2.00098 -42
c-103.333 -110.667 -210.833 -286 -322.5 -526s-176.5 -433.667 -194.5 -581z" />
    <glyph glyph-name="dollar" unicode="$" horiz-adv-x="547" 
d="M457 1094c-4 0 -16.9971 5.83398 -38.9971 17.501s-39 18.167 -51 19.5c-11.333 0.666992 -26.333 -2.33301 -45 -9c-23.333 -96 -42.666 -202.333 -57.999 -319c143.333 -12 215 -63.333 215 -154c0 -56.667 -25.667 -110 -77 -160
c-44.667 -43.333 -99.334 -76.333 -164.001 -99c1.33301 -60 5.66602 -111 12.999 -153c4 -24.667 -3.33301 -37 -22 -37c-17.333 0 -28 11.333 -32 34c-6.66699 40 -11.334 87 -14.001 141c-20 -3.33301 -38.667 -5 -56 -5c-33.333 0 -64.333 10 -93 30
c-33.333 24 -50 54.667 -50 92c0 15.333 6.66699 33.333 20 54c15.333 23.333 31.666 35 48.999 35c5.33301 0 10.333 -0.666992 15 -2c-3.33301 -23.333 -8 -41.333 -14 -54c-3.33301 -7.33301 -5 -15 -5 -23c0 -30 18.333 -45 55 -45c20 0 45.333 4 76 12
c-1.33301 84 1 171.667 7 263l-83 4c-31.333 1.33301 -62.333 7.66602 -93 18.999c-40.667 16.667 -61 38.334 -61 65.001c0 49.333 33.333 113 100 191c64 74.667 131.667 132 203 172c14 60 29.667 111 47 153c6 14.667 18.667 22 38 22v0c14 0 25.833 -4.33301 35.5 -13
s11.834 -19.667 6.50098 -33c-10.667 -26.667 -21.334 -57.334 -32.001 -92.001c6.66699 0.666992 13.667 1 21 1c19.333 0 43.333 -7.66699 72 -23c34 -18 51 -38.333 51 -61c0 -28.667 -11.667 -43 -35 -43zM193.003 806.001c8.66699 94.667 20.667 183.333 36 266
c-48 -34 -89 -71.667 -123 -113c-36.667 -44.667 -55 -82.334 -55 -113.001c0 -27.333 47.333 -40.666 142 -39.999zM296.003 728l-40 2c-9.33301 -85.333 -15 -166.333 -17 -243c115.333 43.333 173 93 173 149c0 28 -13.667 50.667 -41 68
c-22.667 15.333 -47.667 23.333 -75 24z" />
    <glyph glyph-name="percent" unicode="%" horiz-adv-x="895" 
d="M601 940c18.667 -2.66699 51.6611 -4 98.9941 -4c16.667 0 31.334 0.666992 44.001 2c44 38 85 70 123 96c8 5.33301 17 8 27 8v0c22 0 36.667 -8.33301 44 -25c8.66699 -18.667 0.333984 -38 -24.999 -58l-94 -73c-154.667 -123.333 -320 -295.333 -496 -516
c-172 -216.667 -289.667 -397.667 -353 -543c-7.33301 -17.333 -17.666 -26 -30.999 -26c-18 0 -27 11 -27 33c0 8 2 16 6 24c58.667 136.667 161.334 304.167 308.001 502.5s293.334 367.166 440.001 506.499c-28 2 -53.333 5.66699 -76 11
c-32 -106.667 -79 -167 -141 -181c-10.667 -2 -21 -3 -31 -3c-58 0 -87 34.333 -87 103c0 41.333 13.167 87.333 39.5 138s50.5 76 72.5 76c22.667 0 34 -10 34 -30c0 -6 -5.33301 -16 -16 -30c-40.667 -53.333 -61 -103 -61 -149c0 -34.667 7 -52 21 -52
c44 0 81 49 111 147c-53.333 22.667 -78.666 55.334 -75.999 98.001c2.66699 37.333 23 56 61 56c54 0 82 -37 84 -111zM395.994 -62c-11.333 -2.66699 -21.668 -4 -31.001 -4c-58 0 -87 34.333 -87 103c0 42 13.167 88.333 39.5 139s50.5 76 72.5 76
c22.667 0 34 -10.333 34 -31c0 -1.33301 -12.833 -22 -38.5 -62s-38.5 -79 -38.5 -117c0 -34 7 -51 21 -51c26.667 0 54.334 26.667 83.001 80c25.333 48 38 86.333 38 115c0 36 -7.33301 54 -22 54c-13.333 0 -30.333 -9.66699 -51 -29l-13 8c-6.66699 4 -10 10.333 -10 19
c0 10.667 11 22 33 34c18.667 10 32.334 15 41.001 15c52.667 0 79.667 -36 81 -108c0.666992 -34 -12.333 -77.667 -39 -131c-32.667 -64 -70.334 -100.667 -113.001 -110zM541.992 955c-2.66699 30 -9.66699 45.001 -21 45.001
c-7.33301 1.33301 -11 0.666016 -11 -2.00098c0 -20 10.667 -34.333 32 -43z" />
    <glyph glyph-name="ampersand" unicode="&#x26;" horiz-adv-x="1062" 
d="M709 322c-38 -8 -94.334 -22.667 -169.001 -44c-44 -17.333 -66 -40 -66 -68c0 -6.66699 4.66699 -18.834 14 -36.501s14 -30.5 14 -38.5c0 -18.667 -9 -28 -27 -28c-7.33301 0 -17.666 12.333 -30.999 37c-20 34.667 -30 59 -30 73c0 60 41.667 106.333 125 139l231 73
c83.333 32.667 125 78.667 125 138c0 38.667 -19.333 69.334 -58 92.001s-58 37.667 -58 45c0 19.333 12 29 36 29c30.667 0 63.667 -18.333 99 -55c38.667 -40 58 -81.667 58 -125c0 -68.667 -28.667 -122.667 -86 -162c-38 -26.667 -97 -49.667 -177 -69zM361.999 -115
c-68.667 8.66699 -134.335 39.999 -197.002 93.999c-70 60 -105 125.667 -105 197c0 30.667 7 60.667 21 90c30.667 64.667 76 122 136 172c56 46.667 112.667 77.667 170 93c-118 54 -177 123 -177 207c0 29.333 7.33301 59.666 22 90.999c54 115.333 157.333 173 310 173
c14.667 0 29 -0.666992 43 -2c36.667 -3.33301 81.334 -20 134.001 -50c63.333 -36 95 -72.667 95 -110c0.666992 -11.333 -5.33301 -22.5 -18 -33.5s-26 -16.5 -40 -16.5c-14.667 0 -26 7 -34 21c-44 82 -112 123 -204 123c-104 0 -174.333 -38.333 -211 -115
c-8 -18 -12 -35.333 -12 -52c0 -46.667 32.667 -91 98 -133c3.33301 -2 56.333 -29 159 -81c8 -4 28.5 -6 61.5 -6s55.5 -2.66699 67.5 -8c25.333 -10 38 -27 38 -51s-14.667 -36 -44 -36c-5.33301 0 -11 0.666992 -17 2c-48 8 -81.333 12 -100 12
c-54 -0.666992 -83.333 -0.666992 -88 0c-44.667 2 -101.334 -17 -170.001 -57c-76 -44.667 -127.667 -95.667 -155 -153c-12 -25.333 -18 -49.666 -18 -72.999c0 -55.333 30.333 -103.666 91 -144.999c52.667 -36.667 113.334 -59.667 182.001 -69
c21.333 -2.66699 42.333 -4 63 -4v0c111.333 0 197 34.667 257 104c66.667 76 80.667 175.667 42 299c-1.33301 4.66699 -2 9 -2 13v0c0 16 7.33301 23 22 21c14.667 -2.66699 26.334 -16 35.001 -40c18.667 -52.667 28 -102 28 -148v0c0 -117.333 -54.333 -207 -163 -269
c-96 -55.333 -202.667 -75.333 -320 -60z" />
    <glyph glyph-name="quotesingle" unicode="'" horiz-adv-x="284" 
d="M106 592c-8 -6 -16.333 -9 -25 -9c-16 0 -24 7.66699 -24 23c0 11.333 6 22 18 32c37.333 28.667 56 85 56 169c0 16.667 -1 32.667 -3 48c-2 10.667 5 22 21 34s32 18 48 18c25.333 0 38 -18.333 38 -55c0 -39.333 -12.333 -85 -37 -137
c-26 -55.333 -56.667 -96.333 -92 -123z" />
    <glyph glyph-name="parenleft" unicode="(" horiz-adv-x="465" 
d="M124 509c-18 -78.667 -27 -160.334 -27 -245.001c0 -216 66.333 -343.667 199 -383c9.33301 -14.667 14 -28 14 -40v0c0 -30.667 -19.667 -41.667 -59 -33c-85.333 20 -148.666 84.333 -189.999 193c-32.667 86.667 -49 193.667 -49 321c0 95.333 8 178.333 24 249
c25.333 108.667 64.666 212.334 117.999 311.001c62 114 130.667 195.667 206 245c6 4 12 6 18 6v0c17.333 0 30.333 -10.667 39 -32c9.33301 -22 8 -39.667 -4 -53c-150.667 -175.333 -247 -355 -289 -539z" />
    <glyph glyph-name="parenright" unicode=")" horiz-adv-x="463" 
d="M91 -189c-14 -9.33301 -28 -14.0029 -42 -14.0029c-20.667 0 -31 7.33301 -31 22c0 6.66699 3 13.334 9 20.001c149.333 174.667 249.333 371 300 589c18 78.667 27 160.334 27 245.001c0 216 -66.333 344 -199 384c-9.33301 14.667 -14 28 -14 40v0
c0 30.667 19.667 41.334 59 32.001c85.333 -19.333 148.666 -83.333 189.999 -192c32.667 -86.667 49 -194 49 -322c0 -95.333 -8 -178 -24 -248c-25.333 -109.333 -65 -213.333 -119 -312c-61.333 -114 -129.666 -195.333 -204.999 -244z" />
    <glyph glyph-name="asterisk" unicode="*" 
 />
    <glyph glyph-name="plus" unicode="+" 
 />
    <glyph glyph-name="comma" unicode="," horiz-adv-x="453" 
d="M116 -150c-29.333 -10.667 -44 -3.66797 -44 20.999c0 14.667 9.33301 25.334 28 32.001c24 9.33301 47.167 32.833 69.5 70.5s36.833 78.167 43.5 121.5c3.33301 21.333 24.333 32 63 32c30 0 44.667 -13 44 -39c-1.33301 -35.333 -23.333 -79 -66 -131
c-44.667 -54 -90.667 -89.667 -138 -107z" />
    <glyph glyph-name="hyphen" unicode="-" horiz-adv-x="671" 
d="M569 370c-20.667 6.66699 -43.335 18.334 -68.002 35.001c-18 12 -33 19 -45 21c-21.333 4 -43.666 6 -66.999 6c-44 0 -146 -23 -306 -69c-8.66699 -2.66699 -15.667 -3.66699 -21 -3c-32.667 6 -46.667 23.667 -42 53c4 20.667 52.333 41 145 61
c69.333 14.667 127 23.667 173 27c48 3.33301 86.333 2.66602 115 -2.00098c32 -6 62.333 -16.667 91 -32c40.667 -22 58.334 -47 53.001 -75z" />
    <glyph glyph-name="period" unicode="." horiz-adv-x="305" 
d="M192 -19c-16 0 -31.667 5.33301 -47 16c-17.333 12.667 -26 28 -26 46c0 34.667 18 52 54 52c52 0 78 -15 78 -45c0 -46 -19.667 -69 -59 -69z" />
    <glyph glyph-name="slash" unicode="/" horiz-adv-x="895" 
d="M-30 -173c-7.33301 -17.333 -17.667 -26 -31 -26c-18 0 -27 11 -27 33c0 8 2 16 6 24c75.333 174 211.333 384.667 408 632c204 256.667 384.333 438 541 544c8 5.33301 16.667 8 26 8v0c20 0 35 -9 45 -27c10.667 -19.333 6.66699 -35 -12 -47
c-154 -104 -334.667 -280.333 -542 -529c-206 -246 -344 -450 -414 -612z" />
    <glyph glyph-name="zero" unicode="0" horiz-adv-x="844" 
d="M292 -168c-100 0 -184.997 62.667 -254.997 188c-56 99.333 -85.333 190.333 -88 273c-4 162 15 308.333 57 439c61.333 188 164.666 305.667 309.999 353c8 2.66699 19.667 0.666992 35 -6c18 -8 27 -19 27 -33c0 -29.333 -24.667 -50.666 -74 -63.999
c-89.333 -22.667 -164 -118.667 -224 -288c-33.333 -94.667 -50 -201.334 -50 -320.001c0 -90 18.333 -181.667 55 -275c53.333 -133.333 130.666 -200 231.999 -200c106 0 195.333 76.667 268 230c56 116 88.667 233.667 98 353c1.33301 18 2 37 2 57
c0 114 -18 214 -54 300c-44.667 106 -107.334 159 -188.001 159c-39.333 0 -69.666 -36.667 -90.999 -110c-8.66699 -8.66699 -17.334 -13 -26.001 -13c-9.33301 0 -17 5.33301 -23 16s-7.66699 21.667 -5 33c8.66699 44 32.667 79.333 72 106c32.667 22 66 33 100 33
c94 0 170.333 -63.333 229 -190c48 -104 72 -211 72 -321c0 -157.333 -37.667 -308.333 -113 -453c-92.667 -178 -214.667 -267 -366 -267z" />
    <glyph glyph-name="one" unicode="1" horiz-adv-x="518" 
d="M214 956c-19.333 -4.66699 -44.6689 -30.333 -76.002 -77c-30 -44 -54.333 -66 -73 -66c-30.667 0 -46 13.333 -46 40c0 27.333 33 68.333 99 123c64 52.667 109 79 135 79c18.667 0 36 -6 52 -18c18.667 -14 28 -31.667 28 -53c0 -14.667 -17.333 -84.667 -52 -210
c-60 -216.667 -90 -417.667 -90 -603c0 -126.667 23.333 -190 70 -190h85c16.667 0 38.334 -9.66699 65.001 -29c29.333 -21.333 44 -41.666 44 -60.999l-4 -30c-21.333 2.66699 -44 12.667 -68 30c-16 10.667 -38.667 16 -68 16c-60 0 -151.333 -30.667 -274 -92
c-26.667 -13.333 -43.667 -20 -51 -20c-28 0 -42 14.333 -42 43c0 30.667 69.667 73 209 127c-28.667 47.333 -43 104.333 -43 171v123c0 151.333 21.667 319.333 65 504c22.667 95.333 34.334 159.666 35.001 192.999z" />
    <glyph glyph-name="two" unicode="2" horiz-adv-x="895" 
d="M384 288l-281.002 -211c-80.667 -66.667 -121 -115.667 -121 -147c0 -6 9.33301 -9 28 -9c32.667 0 110.334 20 233.001 60c126.667 42 219 63 277 63c38.667 0 78 -10.333 118 -31c51.333 -25.333 77 -58.666 77 -99.999c0 -25.333 -14.667 -49.333 -44 -72h-51
c18 42.667 27 65.667 27 69c0 32.667 -48.333 49 -145 49c-60.667 0 -129.334 -13.667 -206.001 -41l-196 -78c-42.667 -15.333 -76.667 -23 -102 -23s-49.333 10.833 -72 32.5s-34 45.167 -34 70.5c0 50 45.333 115.667 136 197c36 32 131 106.667 285 224
c129.333 99.333 223.333 179.333 282 240c82 85.333 123 158.666 123 219.999c0 92.667 -52.667 139 -158 139c-157.333 0 -338.333 -62.667 -543 -188c-41.333 -25.333 -65.666 -38 -72.999 -38c-36.667 0 -55 17.333 -55 52c0 23.333 11.667 43 35 59l63 32
c204.667 104.667 378.334 157 521.001 157c86 0 155 -19 207 -57c59.333 -43.333 89 -108 89 -194c0 -69.333 -45 -149.333 -135 -240c-59.333 -60.667 -154.333 -139 -285 -235z" />
    <glyph glyph-name="three" unicode="3" horiz-adv-x="944" 
d="M772 570c-42.667 -28.667 -121.998 -72.665 -237.998 -131.998c198.667 -14 298 -94 298 -240c0 -102 -62.667 -196.667 -188 -284c-114.667 -80.667 -224 -121 -328 -121c-235.333 0 -387.333 88.667 -456 266c-4.66699 8 -7 15.667 -7 23v0c0 16 6.33301 26 19 30
c13.333 4.66699 24.666 -1 33.999 -17c26.667 -66.667 75 -119.334 145 -158.001c65.333 -36 136.666 -54 213.999 -54c104.667 0 210 29.333 316 88c119.333 66 179 144 179 234c0 104.667 -109.667 157 -329 157c-16 0 -75 -8 -177 -24c-20 -3.33301 -34.667 -5 -44 -5
c-26 0 -39 10 -39 30c0 30.667 22.333 52.667 67 66c28.667 6 71.667 17 129 33c113.333 38.667 220 90 320 154c133.333 86 200 166.333 200 241c0 48.667 -25 85.667 -75 111c-44 22 -95.333 31 -154 27c-122 -8 -235.667 -35.333 -341 -82
c-69.333 -30 -121.666 -61 -156.999 -93c-10.667 -10 -24 -15 -40 -15c-35.333 0 -53 14.667 -53 44c0 43.333 64.667 90.666 194 141.999c133.333 52.667 263.666 79 390.999 79c214.667 0 322 -73.667 322 -221c0 -97.333 -67.333 -190.333 -202 -279z" />
    <glyph glyph-name="four" unicode="4" horiz-adv-x="906" 
d="M689 512l8.00293 2.00195c8 1.33301 15.333 2 22 2c77.333 0 136 -33.333 176 -100l-17 -59c-43.333 46.667 -99.333 70 -168 70c-2.66699 0 -16.334 -5 -41.001 -15c-17.333 -111.333 -26 -185.666 -26 -222.999v-180c0 -101.333 17.667 -162.333 53 -183
c22 -12.667 45.333 -31.334 70 -56.001c-40.667 -8 -61.667 -12 -63 -12c-57.333 0 -100.333 41.333 -129 124c-19.333 58 -29 122 -29 192c0 37.333 5.66699 90.666 17 159.999c12 72 18.333 124.667 19 158c-80.667 -20 -138 -35 -172 -45
c-64.667 -19.333 -120.334 -40.333 -167.001 -63c-40 -15.333 -95 -37.666 -165 -66.999c-50.667 -22.667 -82 -34 -94 -34c-41.333 0 -62 16.667 -62 50c0 6.66699 13 37 39 91c30 64 46 98 48 102c58 145.333 100 272.333 126 381l25 150c17.333 88 40.666 132 69.999 132
c34 0 51 -22.667 51 -68c0 -56 -29 -170 -87 -342c-56 -164.667 -106 -289.334 -150 -374.001c63.333 17.333 161.666 49 294.999 95c141.333 49.333 227.333 82.333 258 99c14.667 87.333 37.334 190.666 68.001 309.999c42 162.667 75.333 244 100 244
c35.333 0 53 -17 53 -51c0 -25.333 -21 -103 -63 -233c-38 -117.333 -59.667 -203 -65 -257z" />
    <glyph glyph-name="five" unicode="5" horiz-adv-x="916" 
d="M70 494c182 104 336.33 156 462.997 156c94.667 0 171.334 -18.333 230.001 -55c66 -42 99 -103.667 99 -185c0 -28.667 -4.33301 -59.334 -13 -92.001c-38.667 -148 -141 -273.667 -307 -377c-148 -92.667 -291 -139 -429 -139c-125.333 0 -188 42.333 -188 127
c0 14.667 2.33301 30.334 7 47.001c3.33301 12.667 13 30 29 52c18 24.667 32.667 37 44 37c26 0 34 -17.333 24 -52c-13.333 -9.33301 -22.666 -24 -27.999 -44c-1.33301 -7.33301 -2 -14 -2 -20c0 -43.333 40.667 -65 122 -65c120 0 248.333 45 385 135
c144.667 95.333 232 200.333 262 315c5.33301 20 8 39.667 8 59c0 54 -19.833 97.333 -59.5 130s-90.167 49 -151.5 49c-115.333 0 -280.333 -62 -495 -186c-44 -25.333 -71.667 -38 -83 -38c-34 0 -51 11.333 -51 34c0 15.333 15 47 45 95c61.333 98 110.333 217 147 357
c2 6 4.66699 15.667 8 29l-14 -8c-23.333 -13.333 -41.666 -20 -54.999 -20c-32 0 -48 13.333 -48 40c0 4 0.333008 7.66699 1 11c7.33301 26.667 68.666 63.667 183.999 111c94.667 38.667 166.334 63.334 215.001 74.001c80 18 165 27 255 27
c41.333 0 74.666 -13 99.999 -39c22 -22 33 -47 33 -75c0 -30 -12 -47.333 -36 -52c-12.667 -2 -21.667 1.5 -27 10.5s-6.33301 19.167 -3 30.5c0.666992 3.33301 1 6.66602 1 9.99902c0 26 -33 39 -99 39c-98.667 0 -233.667 -38.667 -405 -116
c-33.333 -130 -82.666 -254.333 -147.999 -373c-9.33301 -16.667 -16 -29.667 -20 -39z" />
    <glyph glyph-name="six" unicode="6" horiz-adv-x="777" 
d="M693 977c-6.66699 0 -29.0039 5.66699 -67.0039 17c-34.667 10.667 -63 16 -85 16c-56 0 -123.333 -43.333 -202 -130c-67.333 -74 -116.333 -146 -147 -216c-93.333 -211.333 -138.333 -374.333 -135 -489c4.66699 -188.667 58.334 -283 161.001 -283
c46.667 0 103.334 31.333 170.001 94c58.667 54.667 102.334 109.334 131.001 164.001c62.667 120 93 221 91 303c-2.66699 99.333 -44.667 149 -126 149s-160.333 -54.333 -237 -163c-72.667 -103.333 -107.667 -199 -105 -287
c0.666992 -22.667 8.16699 -47.334 22.5 -74.001s21.5 -41.667 21.5 -45c0.666992 -22 -11 -33 -35 -33c-21.333 0 -40.666 22.667 -57.999 68c-14 36 -21.333 67.333 -22 94c-2.66699 114.667 36 225.667 116 333c86.667 116 187.334 174 302.001 174c66 0 117 -23 153 -69
c32 -40.667 49 -93 51 -157c3.33301 -124 -40.334 -255.333 -131.001 -394c-99.333 -153.333 -210.333 -230 -333 -230c-44 0 -85 12.167 -123 36.5s-65 57.166 -81 98.499c-28 72 -42 154 -42 246c0 170 40.333 333.333 121 490c50 97.333 114.667 185.333 194 264
c101.333 102.667 197 154 287 154c30 0 62 -6.66699 96 -20c42.667 -17.333 64.334 -39.666 65.001 -66.999c1.33301 -29.333 -16.334 -44 -53.001 -44z" />
    <glyph glyph-name="seven" unicode="7" horiz-adv-x="730" 
d="M608 990l-7.99805 -0.999023c-62.667 -6.66699 -173.667 -14.334 -333 -23.001c-202.667 -5.33301 -304 20 -304 76c0 30 17.667 45 53 45c19.333 0 46.666 -5 81.999 -15s61.666 -15.333 78.999 -16c210.667 -7.33301 395 0.333984 553 23.001
c34 5.33301 51 -6.66699 51 -36c0 -10 -2.66699 -20.667 -8 -32c-13.333 -6 -32 -15.333 -56 -28c-47.333 -26.667 -110.666 -93 -189.999 -199c-60.667 -80.667 -114.667 -161.667 -162 -243c-122.667 -209.333 -197 -397 -223 -563c-4 -22.667 -9 -59.334 -15 -110.001
c-16 -16.667 -30.667 -25 -44 -25c-32 0 -48 25.333 -48 76c0 138.667 68.667 327.667 206 567c121.333 212 243.666 380 366.999 504z" />
    <glyph glyph-name="eight" unicode="8" horiz-adv-x="832" 
d="M538 433c74 -34.667 125.666 -70.667 154.999 -108c24 -31.333 36 -67 36 -107c0 -104.667 -54 -190 -162 -256c-88.667 -54.667 -181.334 -82 -278.001 -82c-153.333 0 -230 49.333 -230 148c0 85.333 101.667 210 305 374c-32 14 -81.333 30.5 -148 49.5
s-116 35.833 -148 50.5c-101.333 44.667 -152 97.334 -152 158.001c0 64.667 57.333 135.334 172 212.001c91.333 60.667 205 116.667 341 168c120.667 46 203.334 69 248.001 69c60 0 109.333 -19.833 148 -59.5s58 -89.167 58 -148.5
c0 -18.667 -8.33301 -55.334 -25 -110.001c-21.333 -68.667 -43.666 -103 -66.999 -103c-35.333 0 -53 14 -53 42c0 16 12.5 44.167 37.5 84.5s37.5 75.5 37.5 105.5c0 68 -42.333 102 -127 102c-101.333 0 -238 -44.333 -410 -133
c-183.333 -94.667 -275 -179.667 -275 -255c0 -28.667 94.667 -70 284 -124c24 -6.66699 71.667 -22 143 -46c3.33301 -1.33301 7 -2.66602 11 -3.99902c11.333 0 48.333 29 111 87c54.667 50 89.667 84.333 105 103c10 11.333 15 21.666 15 30.999v0
c0 -2.66699 -1.33301 5 -4 23c-2 10 -0.333008 20.667 5 32c8 8.66699 15.667 13 23 13c12 0 23 -9.66699 33 -29c8 -16.667 12 -32 12 -46c0 -46.667 -61.667 -122.334 -185 -227.001zM455.999 374c-15.333 0 -71.668 -48.001 -169.001 -144.001
c-103.333 -101.333 -155 -169.666 -155 -204.999c0 -48.667 57 -73 171 -73c56.667 0 127.334 26.667 212.001 80c96 59.333 144 121 144 185c0 28.667 -29.667 63 -89 103c-54.667 36 -92.667 54 -114 54z" />
    <glyph glyph-name="nine" unicode="9" horiz-adv-x="762" 
d="M537 59c-105.333 -196 -230.003 -294.003 -374.003 -294.003c-28 0 -62.333 9.66699 -103 29c-51.333 24.667 -77 53.334 -77 86.001c0 20 8 30 24 30c10.667 0 20.667 -4.33301 30 -13c44 -41.333 83 -62 117 -62c143.333 0 260 122.333 350 367
c66 180 99 334.333 99 463c0 68.667 -9.66699 136 -29 202c-33.333 108 -85.666 162 -156.999 162c-24 0 -68.333 -24 -133 -72c-68 -50.667 -121.333 -126 -160 -226c-33.333 -88 -50 -179.667 -50 -275c0 -122 40 -183 120 -183c80.667 0 155.667 55.667 225 167
c63.333 102 95 200.667 95 296c0 62 -17.333 101.333 -52 118c-10.667 4.66699 -16 12 -16 22v0c0 10.667 6 20.667 18 30s22.333 12 31 8c39.333 -19.333 65.333 -50.666 78 -93.999c7.33301 -26.667 11 -71 11 -133c0 -90.667 -35.667 -189.667 -107 -297
c-83.333 -126 -180 -189 -290 -189c-3.33301 0 -8.66602 1.33301 -15.999 4l-3 1c-70 0 -122 39.667 -156 119c-22.667 54 -34 112.333 -34 175c0 114.667 43 240.334 129 377.001c94.667 150 194 225 298 225c102.667 0 177.334 -57.667 224.001 -173
c34.667 -83.333 52 -187.333 52 -312c0 -22 -0.666992 -43.333 -2 -64c-10.667 -172 -58 -336.667 -142 -494z" />
    <glyph glyph-name="colon" unicode=":" horiz-adv-x="299" 
d="M251 408c-16 0 -31.667 5.66699 -47 17c-17.333 12.667 -26 27.667 -26 45c0 34.667 17.667 52 53 52c52.667 0 79 -15 79 -45c0 -46 -19.667 -69 -59 -69zM187 -60c-16.667 0 -32.333 5.66699 -47 17c-17.333 12.667 -26 27.667 -26 45c0 34.667 17.667 52 53 52
c52 0 78 -14.667 78 -44c0 -46.667 -19.333 -70 -58 -70z" />
    <glyph glyph-name="semicolon" unicode=";" horiz-adv-x="446" 
d="M340 430c-16 0 -31.667 5.66699 -47 17c-17.333 12 -26 27 -26 45c0 34.667 17.667 52 53 52c52.667 0 79 -15 79 -45c0 -46 -19.667 -69 -59 -69zM109 -190c-30 -11.333 -44.999 -4.33301 -44.999 21c0 14 9.66699 24.667 29 32c23.333 9.33301 46.333 32.833 69 70.5
s37.334 78.167 44.001 121.5c3.33301 21.333 24.333 32 63 32c29.333 0 43.666 -13 42.999 -39c-1.33301 -35.333 -23.333 -79 -66 -131c-44.667 -54 -90.334 -89.667 -137.001 -107z" />
    <glyph glyph-name="less" unicode="&#x3c;" 
 />
    <glyph glyph-name="equal" unicode="=" 
 />
    <glyph glyph-name="greater" unicode="&#x3e;" 
 />
    <glyph glyph-name="question" unicode="?" horiz-adv-x="855" 
d="M619 580c-32 -25.333 -86 -65 -162 -119c-142 -100.667 -213 -174 -213 -220c0 -22 10.333 -34.333 31 -37c36 -4.66699 54 -15.667 54 -33c0 -26 -16 -39 -48 -39c-32.667 0 -59.5 11.833 -80.5 35.5s-31.5 51.167 -31.5 82.5c0 54.667 49.333 123.667 148 207l275 212
c98.667 80 148 144.333 148 193c0 89.333 -67.667 134 -203 134c-72 0 -154 -22.333 -246 -67c-61.333 -29.333 -130.333 -70.666 -207 -123.999c-64 -44.667 -97.667 -67 -101 -67c-29.333 0 -44 16 -44 48c0 34 56 83 168 147c96 55.333 168 89.666 216 102.999
c72.667 20 144.667 30 216 30c186 0 279 -69.333 279 -208c0 -80 -66.333 -172.667 -199 -278zM254 -135c-41.333 0 -62 15.332 -62 45.999c0 37.333 21.667 56 65 56c44.667 0 67 -17.333 67 -52c0 -11.333 -9.33301 -22.666 -28 -33.999c-16 -10.667 -30 -16 -42 -16z" />
    <glyph glyph-name="at" unicode="@" horiz-adv-x="1024" 
d="M543 -19c-128 0 -241.998 37.9961 -341.998 113.996c-111.333 84.667 -167 192.334 -167 323.001c0 119.333 51.333 227.333 154 324c100 94.667 208 142 324 142c78 0 150.667 -25.333 218 -76c74 -56.667 119.333 -130.334 136 -221.001c3.33301 -21.333 5 -43 5 -65v0
c0 -90 -24 -165 -72 -225c-52 -65.333 -114.667 -85 -188 -59c-42 15.333 -62.667 64.666 -62 147.999c-117.333 -146 -210 -219 -278 -219c-37.333 0 -56 22.667 -56 68c0 85.333 56.5 194.5 169.5 327.5s196.5 181.833 250.5 146.5c17.333 -11.333 26 -33.666 26 -66.999
c0 -42 -14.667 -64.333 -44 -67c-12.667 -1.33301 -22.334 1.83398 -29.001 9.50098s-8 15.834 -4 24.501c7.33301 18 10.666 34 9.99902 48c0 4 1.66699 6.33301 5 7c-38 -7.33301 -102.167 -69 -192.5 -185s-135.5 -195 -135.5 -237c0 -14 6.33301 -21 19 -21
c29.333 0 82 46 158 138l75 89c30 39.333 46.667 73.666 50 102.999c2.66699 21.333 15 32 37 32c30 0 42.333 -14.333 37 -43c-21.333 -107.333 -32 -171.666 -32 -192.999c0 -36.667 8 -57.334 24 -62.001c6.66699 -1.33301 13 -2 19 -2v0c44 0 80.5 31.667 109.5 95
s36.167 131.333 21.5 204c-15.333 77.333 -50 138.333 -104 183c-50 40.667 -107.667 61 -173 61c-99.333 0 -191.833 -42.167 -277.5 -126.5s-128.5 -178.166 -128.5 -281.499c0 -111.333 45.667 -203.666 137 -276.999c85.333 -68 185.333 -102 300 -102
c93.333 0 171.833 25 235.5 75s95.5 112 95.5 186c0 26.667 -4.66699 53.334 -14 80.001c-1.33301 4.66699 -2 9 -2 13v0c0 14 5.66699 22 17 24c12 2.66699 21.333 -3.33301 28 -18c21.333 -44.667 32 -87.667 32 -129c0 -86 -42 -156.667 -126 -212
c-76 -51.333 -164.667 -77 -266 -77z" />
    <glyph glyph-name="A" unicode="A" horiz-adv-x="1123" 
d="M988 -123c-120.667 0.666992 -199.668 182.002 -237.001 544.002c-12.667 1.33301 -27.667 2 -45 2c-61.333 0 -154.333 -14.333 -279 -43c-115.333 -26 -174.666 -43 -177.999 -51l-107 -252l-81 -206c-26 -64 -54.333 -96 -85 -96c-34.667 0 -52 19.333 -52 58
c0 16.667 52.667 128 158 334c26.667 52.667 45.667 92.334 57 119.001c-36 -14 -67.333 -30 -94 -48c-11.333 -7.33301 -25 -11 -41 -11c-32.667 0 -49 16.667 -49 50c0 23.333 32.667 47 98 71l130 43l57 121c38 85.333 97.333 211.666 178 378.999
c80.667 156 158.667 234 234 234c35.333 0 66.333 -22.667 93 -68c17.333 -30 29.666 -61.333 36.999 -94c19.333 -88.667 36.333 -241 51 -457c130.667 -11.333 196 -57 196 -137c0 -28.667 -11.667 -49 -35 -61c-30 -14.667 -45 -5 -45 29c0 3.33301 3.33301 14 10 32
c0 36 -43.333 54 -130 54c8 0 13.333 -7.66699 16 -23c43.333 -302.667 90.333 -454 141 -454c10.667 0 21 3.66699 31 11c14 11.333 23.5 18 28.5 20s9.83301 3 14.5 3v0c24 1.33301 36 -12.334 36 -41.001c0 -18.667 -14.667 -34.334 -44 -47.001
c-23.333 -10.667 -44.666 -15.667 -63.999 -15zM713.999 826.002c-22 144.667 -49.666 217 -82.999 217s-94.333 -93.333 -183 -280c-30.667 -64.667 -79.334 -175.667 -146.001 -333c160 46 307.667 74 443 84c-4.66699 66 -15 170 -31 312z" />
    <glyph glyph-name="B" unicode="B" horiz-adv-x="1171" 
d="M426 -141c-144.667 -19.333 -229.333 -29 -254 -29c-134.667 0 -202 45.333 -202 136c0 57.333 23 100.333 69 129c20 0 31.667 -1.66699 35 -5c1.33301 -1.33301 5.33301 -12.666 12 -33.999c-29.333 -33.333 -44 -63.333 -44 -90c0 -30.667 44 -46 132 -46
c132 0 276 32.667 432 98c76 31.333 161.667 87.666 257 168.999c108.667 92 163 165.667 163 221c0 68.667 -67.667 103 -203 103c-99.333 0 -200 -18.333 -302 -55l-123 -54c-61.333 -27.333 -98.666 -41 -111.999 -41c-38.667 0 -58 7 -58 21
c0 19.333 30.667 46.666 92 81.999c322 182.667 483 340.334 483 473.001c0 32 -18.333 57.333 -55 76c-32 16 -70.333 24 -115 24c-190 0 -397.667 -104.667 -623 -314c-46.667 -43.333 -75.334 -65 -86.001 -65c-32.667 0 -49 18 -49 54c0 25.333 40.667 70.333 122 135
c219.333 174 427.666 261 624.999 261c186 0 279 -64 279 -192c0 -87.333 -79.333 -197.333 -238 -330c50 9.33301 101 14 153 14c64.667 0 124.667 -13.333 180 -40c72 -35.333 108 -85.333 108 -150c0 -111.333 -87.667 -230.333 -263 -357
c-157.333 -113.333 -295.666 -178 -414.999 -194zM240.001 752c-66.667 -127.333 -100.001 -304.668 -100.001 -532.001c0 -96.667 34.667 -155 104 -175c10.667 -10.667 16 -20.667 16 -30c0 -20 -15.667 -30 -47 -30c-49.333 0 -89.666 38.333 -120.999 115
c-24.667 60 -37 117.333 -37 172c0 70.667 15 179.334 45 326.001c35.333 174.667 71.333 262 108 262c33.333 0 50 -17.333 50 -52c0 -15.333 -6 -34 -18 -56z" />
    <glyph glyph-name="C" unicode="C" horiz-adv-x="849" 
d="M694 69c-51.333 -66.667 -116.003 -122.33 -194.003 -166.997c-84.667 -48 -167 -72 -247 -72c-92 0 -168.667 38.667 -230 116c-56 70 -84 150.667 -84 242v73c0 99.333 31.667 218.666 95 357.999c66.667 145.333 147.667 266 243 362c110 110.667 219 166 327 166
c24.667 0 54.667 -8.66699 90 -26c42 -20.667 63 -43 63 -67c0 -16.667 -6.66699 -30.834 -20 -42.501s-27.666 -17.5 -42.999 -17.5c-3.33301 0 -21.666 7.66699 -54.999 23s-61.333 23 -84 23c-110 0 -227.333 -102.667 -352 -308c-116 -192 -174 -352.667 -174 -482
c0 -91.333 14.333 -167 43 -227c36 -75.333 90.667 -113 164 -113c62 0 133.667 23.667 215 71c120.667 70 224.334 186.667 311.001 350c14 26.667 29 40 45 40c15.333 0 26.333 -14 33 -42c-3.33301 -20.667 -25.333 -65.667 -66 -135
c-35.333 -60.667 -62 -102.334 -80 -125.001z" />
    <glyph glyph-name="D" unicode="D" horiz-adv-x="1184" 
d="M491 -149c-66.667 0 -114 11 -142 33c-6 4.66699 -9 10.334 -9 17.001c0 9.33301 4.5 17.833 13.5 25.5s17.833 10.5 26.5 8.5c46 -9.33301 69.333 -14 70 -14c145.333 0 284.666 73 417.999 219c130.667 143.333 196 288.333 196 435c0 120 -48.667 216.667 -146 290
c-90 68 -199.333 102 -328 102c-87.333 0 -179.666 -14 -276.999 -42c-100.667 -28.667 -185 -66.334 -253 -113.001s-106.333 -70 -115 -70c-38.667 0 -58 18 -58 54c0 23.333 29.667 52 89 86c192 112 398 168 618 168c142 0 267.333 -41.667 376 -125
c119.333 -91.333 179 -207 179 -347c0 -170 -65.667 -331.667 -197 -485c-137.333 -161.333 -291 -242 -461 -242zM292 -144c-68 0 -120 66.999 -156 200.999c-26 94 -39 186.667 -39 278v134c0 47.333 8.66699 116.333 26 207c20.667 110.667 43 166 67 166
c36 0 54 -19.667 54 -59c0 -19.333 -4 -43.666 -12 -72.999c-10.667 -41.333 -16.667 -65 -18 -71c-19.333 -104.667 -29 -200 -29 -286c0 -282.667 49.333 -424 148 -424c12.667 0 26 2.33301 40 7c-30 -53.333 -57 -80 -81 -80z" />
    <glyph glyph-name="E" unicode="E" horiz-adv-x="970" 
d="M759 900c-10 -0.666992 -17 2.66602 -21 9.99902s-5.66699 15.333 -5 24c1.33301 8.66699 2 16.667 2 24c0 24 -8.33301 40 -25 48c-13.333 6 -40 9 -80 9c-108 0 -260.333 -34.667 -457 -104c-8.66699 -3.33301 -44.334 -26.166 -107.001 -68.499s-98 -63.5 -106 -63.5
c-35.333 0 -53 17.667 -53 53c0 30.667 71.333 76.667 214 138c98 42 191.333 77 280 105c30 9.33301 102.333 21.666 217 36.999c11.333 1.33301 23 2 35 2c44.667 0 82.667 -9 114 -27c34 -21.333 51 -49.666 51 -84.999c0 -24 -8.33301 -50 -25 -78
c-9.33301 -16 -20.666 -24 -33.999 -24zM207 510c15.333 3.33301 57 16.667 125 40c52 17.333 93.667 26 125 26c99.333 0 156.666 -23.667 171.999 -71l-9 -46c-26.667 -2 -47 6.33301 -61 25c-8 12 -31.667 18 -71 18c-30.667 0 -82.667 -9 -156 -27
c-82 -20 -125.333 -38 -130 -54c-8 -31.333 -10.667 -81.333 -8 -150l8 -160c1.33301 -49.333 6 -84.666 14 -105.999c14.667 -35.333 43 -53 85 -53c44 0 114.667 12.667 212 38c101.333 26.667 179 40 233 40c44.667 0 85.334 -13.667 122.001 -41
c41.333 -32 62 -73.333 62 -124l-44 -25c-31.333 70.667 -88.333 106 -171 106c-48.667 0 -120 -11.833 -214 -35.5s-165.333 -35.5 -214 -35.5c-75.333 0 -126.333 26 -153 78c-18 34 -27 88.333 -27 163c0 30 1.66699 73 5 129c3.33301 59.333 5.33301 102.333 6 129
c-34 -19.333 -56.333 -29 -67 -29c-29.333 0 -44 19 -44 57c0 22 38 50.333 114 85c3.33301 49.333 10.333 130.333 21 243c16.667 141.333 43.667 212 81 212c36 0 54 -21.333 54 -64c0 1.33301 -8.33301 -34.334 -25 -107.001c-14 -62.667 -29 -149.667 -45 -261z" />
    <glyph glyph-name="F" unicode="F" horiz-adv-x="648" 
d="M867 935c-17.333 9.33301 -26.001 26.333 -26.001 51c0 39.333 -53.333 59 -160 59c-50.667 0 -126.667 -12.667 -228 -38c-93.333 -24 -168.666 -48 -225.999 -72c-11.333 -5.33301 -54.666 -29.333 -129.999 -72l-75 -42c-20.667 -12 -36.334 -19.333 -47.001 -22
c-32.667 0 -49 17 -49 51c0 34.667 35 65.667 105 93c322.667 128 546 192 670 192c49.333 0 93.333 -8.66699 132 -26c52 -24 78 -59 78 -105c0 -40 -14.667 -63 -44 -69zM163.999 480c12 0.666992 36.9971 6 74.9971 16c46.667 11.333 84.667 17 114 17
c32 0 63.667 -5 95 -15c44 -14.667 66 -36.334 66 -65.001l-25 -27c-21.333 2.66699 -45.666 10.334 -72.999 23.001c-19.333 8.66699 -35.333 13 -48 13c-26.667 0 -64.667 -4 -114 -12c-62.667 -10 -94 -21.333 -94 -34c0 -364 41 -539.333 123 -526
c4.66699 0.666992 8.33398 1 11.001 1c28.667 0 43 -11.667 43 -35c0 -10.667 -7.33301 -20 -22 -28c-11.333 -6.66699 -22.333 -10 -33 -10c-138.667 0 -209 183.333 -211 550l-14 -7c-39.333 -21.333 -61 -32 -65 -32c-33.333 0 -50 14.667 -50 44c0 28 16.667 50 50 66
l86 30c6.66699 41.333 12.667 94 18 158c10.667 118 16.334 179.667 17.001 185c16 93.333 42.667 140 80 140c30.667 0 46 -17 46 -51c0 -6.66699 -4.33301 -27.667 -13 -63c-23.333 -93.333 -37 -149.333 -41 -168c-13.333 -64 -20.333 -120.667 -21 -170z" />
    <glyph glyph-name="G" unicode="G" horiz-adv-x="1091" 
d="M971 -267c-100 0 -149.998 92 -149.998 276c0 60 10.667 149.667 32 269c-83.333 -144.667 -161 -246.667 -233 -306c-98.667 -83.333 -221.334 -125 -368.001 -125c-102 0 -182 53 -240 159c-46.667 85.333 -70 179.666 -70 282.999c0 192.667 60.667 388 182 586
c138 226 300.333 339 487 339c27.333 0 57.333 -8 90 -24c39.333 -18.667 59 -40.667 59 -66c0 -14 -4.83301 -26.667 -14.5 -38s-20.5 -17 -32.5 -17c-6 0 -11.333 1.33301 -16 4c-42 25.333 -83.667 38 -125 38c-70.667 0 -145.667 -39 -225 -117
c-93.333 -91.333 -169.333 -202 -228 -332c-60 -134 -90 -264 -90 -390c0 -81.333 18.333 -157 55 -227c43.333 -82 98.666 -123 165.999 -123c147.333 0 293 91 437 273c130 165.333 201.667 320 215 464c4 47.333 -3.66699 71 -23 71c-24.667 0 -150 -68.333 -376 -205
c-46 -28 -74 -42 -84 -42c-31.333 0 -47 16.333 -47 49c0 35.333 78.333 91 235 167c148.667 72 243.667 108 285 108c67.333 0 101 -40.333 101 -121c0 -24.667 -3.66699 -55.667 -11 -93l-14 -72c-34 -242.667 -51 -426 -51 -550c0 -113.333 19.333 -167.666 58 -162.999
c34 4.66699 51 -6.33301 51 -33c0 -28 -18.333 -42 -55 -42z" />
    <glyph glyph-name="H" unicode="H" horiz-adv-x="1270" 
d="M254 509c148.667 46.667 265.665 74.333 350.998 83c144 13.333 216.333 20 217 20c10 0 24.667 -1 44 -3c23.333 -2 38.333 -3 45 -3c10.667 100 30.667 205.333 60 316c39.333 146 78 219 116 219c29.333 0 44 -19.667 44 -59c0 -18.667 -3.33301 -39.667 -10 -63
c-14.667 -36 -30.667 -78.667 -48 -128l-40 -148c-14 -57.333 -22 -107.666 -24 -150.999c40.667 -18.667 68.334 -34.334 83.001 -47.001c26 -22 39 -50.667 39 -86c0 -18.667 -6.33301 -36 -19 -52s-26 -24 -40 -24c-16.667 0 -27.667 13 -33 39l20 42
c-4.66699 20.667 -24 35 -58 43c-5.33301 -18.667 -5.33301 -74 0 -166c4 -72.667 7.33301 -122 10 -148c18 -144 50.667 -216 98 -216c12.667 0 24 6.66699 34 20h47c5.33301 -21.333 8 -33 8 -35c0 -16.667 -11.333 -31 -34 -43c-19.333 -11.333 -37.666 -17 -54.999 -17
c-96 0 -158.333 85 -187 255c-7.33301 42 -14.333 162 -21 360c-24 3.33301 -69 5 -135 5c-110.667 0 -282 -33 -514 -99c-6 -82.667 -24 -196.334 -54 -341.001c-38.667 -184 -107.334 -276 -206.001 -276c-16 0 -34.667 6 -56 18c-27.333 14.667 -41 32.667 -41 54
c0 2 3 13 9 33h41c14.667 -22 28 -33 40 -33c61.333 0 108.333 77 141 231c19.333 90 31 183.333 35 280c-58.667 -30 -98 -45 -118 -45c-28.667 0 -43 15.333 -43 46c0 24.667 19.333 45 58 61c8.66699 3.33301 38.667 12 90 26c4.66699 -1.33301 9 -2.33301 13 -3
c2.66699 52 3.66699 88 3 108c-1.33301 26 -3.66602 95.667 -6.99902 209c-2 70 -16.667 159 -44 267c-4.66699 19.333 -7 36 -7 50c0 42 18.667 63 56 63c28 0 51.333 -67 70 -201c14 -100 21 -184.333 21 -253c0 6.66699 -0.333008 -8.66602 -1 -45.999v-79
c0.666992 -35.333 1 -60 1 -74z" />
    <glyph glyph-name="I" unicode="I" horiz-adv-x="737" 
d="M657 1080c-12 33.333 -63.666 50 -154.999 50c-95.333 0 -189.666 -17 -282.999 -51c-103.333 -37.333 -182 -72 -236 -104c-4.66699 -2.66699 -9.33398 -4 -14.001 -4c-26.667 0 -40 15.333 -40 46c0 40 80.667 82.667 242 128c141.333 40 242.333 60 303 60
c45.333 0 94.666 -8.66699 147.999 -26c69.333 -22.667 104 -52 104 -88c0 -35.333 -8.33301 -53 -25 -53c-19.333 0 -34 14 -44 42zM719.001 -109c-6 -3.33301 -21.001 -4.99902 -45.001 -4.99902c-10 57.333 -67 86 -171 86c-119.333 0 -259 -34.667 -419 -104
c-32.667 -14 -52.667 -21 -60 -21c-34.667 0 -52 17.667 -52 53c0 38.667 108.333 80.334 325 125.001c-53.333 69.333 -80 209 -80 419c0 143.333 10.333 289 31 437c2.66699 42.667 9.33398 105 20.001 187c2.66699 11.333 9.66699 24 21 38c14 16.667 28.667 25 44 25
c38.667 0 54.334 -23.667 47.001 -71c-50.667 -317.333 -76 -537.333 -76 -660c0 -56.667 2.66699 -111.334 8 -164.001c13.333 -128 41.666 -192 84.999 -192c8 0 20.5 0.833008 37.5 2.5s29.5 2.5 37.5 2.5c55.333 0 108 -8 158 -24c69.333 -22.667 104 -55.667 104 -99
c0 -16.667 -5 -28.334 -15 -35.001z" />
    <glyph glyph-name="J" unicode="J" horiz-adv-x="704" 
d="M733 1082c-18 -22.667 -35.333 -23.333 -52 -2c0.666992 6 1 11.667 1 17c0 34 -16 56.333 -48 67c-16 5.33301 -45 8 -87 8c-97.333 0 -240.333 -40.333 -429 -121c-32.667 -14.667 -52 -22 -58 -22c-35.333 0 -53 14.333 -53 43c0 42 83.667 83 251 123
c141.333 34 247 51 317 51c38.667 0 75 -9.66699 109 -29c42.667 -24.667 64 -58 64 -100c0 -9.33301 -5 -21 -15 -35zM325 -172.999c-36 -81.333 -85.998 -155.001 -149.998 -221.001c-78.667 -81.333 -157.334 -124.666 -236.001 -129.999
c-50.667 -3.33301 -75.334 -5 -74.001 -5c-67.333 0 -134.333 26.667 -201 80c-70.667 56.667 -106.667 119.667 -108 189c-1.33301 40 10.667 60 36 60c13.333 0 22 -12 26 -36c8 -54 34.5 -101 79.5 -141s94.5 -60 148.5 -60c184 0 322 109.333 414 328
c68.667 164.667 103 359.667 103 585c0 192 -15.333 392.333 -46 601c-2.66699 16.667 1 34 11 52c12.667 20.667 30 31 52 31c27.333 0 45.333 -13.667 54 -41c2.66699 -10 4.66699 -34 6 -72c5.33301 -130 8 -242.667 8 -338c0 -400.667 -41 -694.667 -123 -882z" />
    <glyph glyph-name="K" unicode="K" horiz-adv-x="768" 
d="M702 -79c-94.667 4.66699 -214.665 95.335 -359.998 272.002c-35.333 44 -87.666 105.667 -156.999 185c-54 56.667 -105.333 91 -154 103l-6 43c20.667 16 36 24.667 46 26c14.667 0 29.334 0.333008 44.001 1c66 7.33301 145.333 47.333 238 120
c79.333 62 145.666 127.333 198.999 196c3.33301 5.33301 11.666 19.666 24.999 42.999c68 120 112 179.333 132 178c12.667 -0.666992 23.667 -7.83398 33 -21.501s13.666 -25.167 12.999 -34.5c-2 -32.667 -45.667 -106.334 -131 -221.001
c-37.333 -51.333 -96 -108 -176 -170c-88.667 -68.667 -169 -116 -241 -142c10.667 -9.33301 50.667 -60 120 -152c56.667 -76 119.667 -147 189 -213c95.333 -91.333 170.666 -138.333 225.999 -141c12 -0.666992 26.333 3 43 11c11.333 6.66699 35 18.334 71 35.001
l20 -33c-2 -28 -26 -50.667 -72 -68c-37.333 -13.333 -71.333 -19 -102 -17zM144.002 -147.999c-68.667 0 -122.668 44.001 -162.001 132.001c-28 62.667 -45.333 135.667 -52 219c-2 24.667 -3 58 -3 100c0 171.333 11 338.666 33 501.999c26.667 202.667 62 304 106 304
c36.667 0 53.667 -20.333 51 -61c-68 -173.333 -102 -387 -102 -641c0 -42.667 1 -100 3 -172c0.666992 -42.667 12 -101.667 34 -177c26.667 -90 54.334 -135 83.001 -135c26 0.666992 48 -5 66 -17c-4 -36 -23 -54 -57 -54z" />
    <glyph glyph-name="L" unicode="L" horiz-adv-x="909" 
d="M906 -131l1.99902 39.002c5.33301 68.667 -77 103 -247 103c-135.333 0 -282.666 -27.333 -441.999 -82c-4 -2 -47.333 -19.333 -130 -52c-69.333 -28 -108 -42 -116 -42c-35.333 0 -53 16.667 -53 50c0 17.333 35.667 44.333 107 81c12.667 6.66699 20.334 11 23.001 13
c79.333 61.333 119 207.666 119 438.999c0 130 -2.66699 226.333 -8 289c-15.333 190.667 -23 281 -23 271c0 41.333 11.667 77.666 35 108.999c26.667 36 61.667 54 105 54c36.667 0 85.667 -22.667 147 -68c65.333 -48 98 -91.333 98 -130c0 -33.333 -16.667 -50 -50 -50
c-24 0 -54.5 29.667 -91.5 89s-74.5 89 -112.5 89c-25.333 0 -36.333 -38 -33 -114c12 -264.667 18 -397.334 18 -398.001v-305c0 -87.333 -22 -170.333 -66 -249c184.667 67.333 348 101 490 101c59.333 0 120.666 -16.667 183.999 -50
c76.667 -39.333 115 -87.333 115 -144c0 -29.333 -23.667 -43.666 -71 -42.999z" />
    <glyph glyph-name="M" unicode="M" horiz-adv-x="1701" 
d="M1568 -165c-56 0 -97.6719 26.334 -125.005 79.001c-47.333 92 -75.666 373.333 -84.999 844c-4.66699 224.667 -34.334 337 -89.001 337c-52 0 -118 -96.667 -198 -290c-44 -105.333 -86.667 -231.333 -128 -378c-53.333 -186 -78 -323.667 -74 -413
c1.33301 -23.333 -2.66699 -46.333 -12 -69c-11.333 -29.333 -28 -44 -50 -44c-14 0 -26.333 8 -37 24c-8 13.333 -12 25.666 -12 36.999c0 41.333 3 103.666 9 186.999s9 146 9 188c0 135.333 -4.66699 249.666 -14 342.999c-17.333 174.667 -45.333 262 -84 262
c-37.333 0 -88.666 -73.667 -153.999 -221c-118 -270.667 -189 -482 -213 -634c-2.66699 -42 -9.66699 -102.667 -21 -182c-7.33301 -33.333 -28.666 -50 -63.999 -50s-53 20 -53 60c0 -3.33301 5.66699 43.667 17 141c24.667 221.333 37 460.333 37 717
c0 120 -16 180 -48 180c-22.667 0 -55 -24.667 -97 -74l-84 -109c-32.667 -40.667 -57 -61 -73 -61c-34.667 0 -52 19 -52 57c0 32 46.333 84.667 139 158c90.667 72 151.667 108 183 108c62 0 101 -54 117 -162c5.33301 -33.333 8 -109.666 8 -228.999
c0 -38.667 -3 -117 -9 -235c139.333 410.667 266 616 380 616c78 0 128 -85.333 150 -256c8.66699 -64 13 -181.333 13 -352c18 81.333 32.667 143.333 44 186c30.667 115.333 75.667 228 135 338c84 156 165.667 234 245 234c96 0 150 -103 162 -309l23 -403
c11.333 -200.667 17.333 -303 18 -307c18.667 -162.667 51.334 -244 98.001 -244c11.333 0 24.833 8.33301 40.5 25s28.167 25 37.5 25c6 0 12 -2.33301 18 -7c14.667 -10 19.334 -25.333 14.001 -46c-5.33301 -19.333 -23.666 -36.666 -54.999 -51.999
c-26.667 -12.667 -48.667 -19 -66 -19z" />
    <glyph glyph-name="N" unicode="N" horiz-adv-x="1121" 
d="M982 -65c-71.333 0 -123.668 63.333 -157.001 190c-20 76.667 -36.333 204.334 -49 383.001c-5.33301 91.333 -16.666 217 -33.999 377c-16.667 104 -40.667 156 -72 156c-22.667 0 -69.334 -90.667 -140.001 -272c-76.667 -198.667 -126.334 -335 -149.001 -409
c-47.333 -157.333 -70.666 -300 -69.999 -428c0.666992 -50 -18.333 -75 -57 -75c-36.667 0 -55 23.333 -55 70c0 41.333 4.33301 104.166 13 188.499s13 147.5 13 189.5c0 46.667 2.5 116.667 7.5 210s7.5 163.333 7.5 210c0 132 -14.333 198 -43 198
c-35.333 0 -102.666 -60.333 -201.999 -181c-22 -27.333 -36.333 -42.666 -43 -45.999c-4 -2 -8 -3 -12 -3c-11.333 0 -21.666 6.66699 -30.999 20c-8.66699 11.333 -13 22.666 -13 33.999c0 36 45 88.667 135 158c86.667 66.667 148 100 184 100
c76.667 0 114.667 -54.333 114 -163l-5 -397l109 321c87.333 230.667 175 346 263 346c60 0 101.333 -46.667 124 -140c5.33301 -22.667 13.666 -92 24.999 -208c4 -80.667 15.333 -220.667 34 -420c27.333 -219.333 62.333 -329 105 -329c6 0 20.333 8.33301 43 25
c8 6 18.667 10.667 32 14l33 -16c-1.33301 -28 -16 -53 -44 -75c-24 -18.667 -46 -28 -66 -28z" />
    <glyph glyph-name="O" unicode="O" horiz-adv-x="937" 
d="M278 -133c-122 0 -211.333 50.333 -268 151c-44 77.333 -66 178 -66 302c0 80 13.667 163.667 41 251l59 166c-4.66699 132 39.333 245 132 339c90 92 195 133.667 315 125c107.333 -7.33301 196 -70.333 266 -189c60 -101.333 90 -206 90 -314
c0 -190 -45 -367.333 -135 -532c-109.333 -199.333 -254 -299 -434 -299zM465 1123c-80 6.66699 -155.832 -24.332 -227.499 -92.999s-109.5 -143.334 -113.5 -224.001c-1.33301 21.333 9.66699 45.833 33 73.5s44.666 41.5 63.999 41.5c12.667 0 24 -5.33301 34 -16
s15 -22 15 -34c0 -18.667 -22.167 -54 -66.5 -106s-66.5 -81.333 -66.5 -88c0 -4.66699 6.83301 -13 20.5 -25s23.5 -18 29.5 -18c19.333 2 31.166 3.5 35.499 4.5s8.5 1.5 12.5 1.5c14 0 21 -6.66699 21 -20c0 -34 -20.667 -51 -62 -51
c-37.333 0 -68.666 11.333 -93.999 34c-43.333 -102 -65 -197.667 -65 -287c0 -94.667 17 -176 51 -244c42 -84 101.667 -126 179 -126c154.667 0 277.667 87.333 369 262c76.667 145.333 115 306.333 115 483c0 96.667 -23.667 187.667 -71 273
c-55.333 98 -126.333 151 -213 159z" />
    <glyph glyph-name="P" unicode="P" horiz-adv-x="1142" 
d="M447 357c-35.333 0 -68.3311 9 -98.998 27c-38.667 22 -58 52.333 -58 91c0 20 7.33301 37.667 22 53h46c-2.66699 -55.333 19.333 -83 66 -83c132 0 265.667 53.667 401 161c140.667 112 211 230.667 211 356c0 80 -36.667 141 -110 183
c-61.333 35.333 -138.666 53 -231.999 53c-122.667 0 -246.334 -34.667 -371.001 -104c-78 -42.667 -183 -118 -315 -226c-24.667 -20 -40.667 -30 -48 -30c-14 0 -27.833 6 -41.5 18s-20.5 25.667 -20.5 41c0 11.333 18.333 33.666 55 66.999
c29.333 26.667 53.666 46.667 72.999 60c142.667 94 250.667 155.667 324 185c106.667 42.667 233 64 379 64c122.667 0 219 -33 289 -99s104.333 -152 103 -258c-0.666992 -100 -53.334 -204.333 -158.001 -313c-96 -99.333 -194.5 -165.166 -295.5 -197.499
s-174.5 -48.5 -220.5 -48.5zM346.002 -174c-88.667 0 -152.332 54.999 -190.999 164.999c-26 73.333 -39 162 -39 266c0 19.333 -1.33301 48.333 -4 87s-4 67.667 -4 87c0 190.667 7.66699 344.334 23 461.001c6.66699 54 26.667 81 60 81c36 0 54 -18.667 54 -56
c0 -22 -4 -50 -12 -84c-10 -45.333 -15.667 -73.333 -17 -84c-16.667 -121.333 -25 -235.333 -25 -342c0 -337.333 53.667 -506 161 -506c5.33301 0 10.666 0.333008 15.999 1l31 -30c-9.33301 -30.667 -27 -46 -53 -46z" />
    <glyph glyph-name="Q" unicode="Q" horiz-adv-x="937" 
d="M544 -36c56.667 -34.667 109.668 -51.998 159.001 -51.998c24 0 37 2 39 6c0 -0.666992 0 0.333008 0 3c0 17.333 1 29.333 3 36c4 11.333 11.667 21.333 23 30c34 -12 51 -33.667 51 -65c0 -28.667 -16.333 -53.334 -49 -74.001c-26.667 -17.333 -52.667 -26 -78 -26
c-44.667 0 -110.334 28.667 -197.001 86l-19 12c-61.333 -32.667 -127.333 -49 -198 -49c-122 0 -211.333 50.333 -268 151c-44 77.333 -66 178 -66 302c0 80 13.667 163.667 41 251l59 166c-4.66699 132 39.333 245 132 339c90 92 195 134 315 126
c107.333 -7.33301 196 -70.333 266 -189c60 -101.333 90 -206.333 90 -315c0 -130.667 -24.333 -262.334 -73 -395.001c-56 -152.667 -132.667 -267 -230 -343zM465.001 1127c-80 6.66699 -155.831 -24.332 -227.498 -92.999s-109.5 -143 -113.5 -223
c-1.33301 20.667 9.66699 45 33 73s44.666 42 63.999 42c12.667 0 24 -5.5 34 -16.5s15 -22.167 15 -33.5c0 -19.333 -22.167 -55 -66.5 -107s-66.5 -81.333 -66.5 -88c0 -4.66699 6.83301 -13 20.5 -25s23.5 -18 29.5 -18c19.333 2 31.166 3.5 35.499 4.5s8.5 1.5 12.5 1.5
c14 0 21 -6.66699 21 -20c0 -34 -20.667 -51 -62 -51c-37.333 0 -68.666 11.667 -93.999 35c-43.333 -102.667 -65 -198.334 -65 -287.001c0 -94.667 17 -176.334 51 -245.001c42 -84 101.667 -126 179 -126c45.333 0 88.333 8 129 24c-64.667 40 -125.334 60 -182.001 60
c-50 0 -75 15.667 -75 47c0 33.333 26.333 50 79 50c62 0 146.667 -38.667 254 -116c90 62 160.667 164 212 306c44.667 122.667 67 247.334 67 374.001c0 96.667 -23.667 187.667 -71 273c-55.333 98 -126.333 151 -213 159z" />
    <glyph glyph-name="R" unicode="R" horiz-adv-x="1111" 
d="M944 -134c-114.667 0 -233.331 85.3359 -355.998 256.003c-34.667 48 -76.334 98 -125.001 150c-52.667 56 -87.667 86.333 -105 91c-56.667 15.333 -82.667 37.666 -78 66.999c2.66699 20.667 23.334 31 62.001 31c28.667 0 53.334 -4.33301 74.001 -13
c132.667 12.667 264 70.667 394 174c137.333 109.333 210.333 223.333 219 342c6 80 -22.333 139.667 -85 179c-52.667 33.333 -125 50 -217 50c-194.667 0 -426.667 -98.333 -696 -295c-53.333 -39.333 -82 -59 -86 -59c-12.667 0 -26.334 5.5 -41.001 16.5
s-22 22.5 -22 34.5c0 7.33301 3 14 9 20c90 88.667 218.333 169.334 385 242.001c174.667 76 327.667 114 459 114c119.333 0 212 -28.333 278 -85s99 -133.334 99 -230.001c0 -11.333 -0.666992 -23.333 -2 -36c-8 -99.333 -68.333 -203.333 -181 -312
c-102.667 -98.667 -205.334 -164 -308.001 -196c-26.667 -8.66699 -66 -20.334 -118 -35.001l73 -100c68 -89.333 147.333 -174.333 238 -255c57.333 -50.667 113.666 -76 168.999 -76c12.667 0 27.667 4.33301 45 13c11.333 7.33301 35.333 20.333 72 39l20 -33
c-3.33301 -28.667 -28 -52.334 -74 -71.001c-36.667 -15.333 -70.667 -23 -102 -23zM367.003 -176.997c-139.333 0 -207.334 144.999 -204.001 434.999c2 210.667 24.333 421.334 67 632.001c11.333 53.333 33 80 65 80c33.333 0 50 -18.667 50 -56
c0 -18.667 -5.66699 -48 -17 -88c-6 -18 -13.667 -45 -23 -81c-22.667 -106 -38.667 -221.333 -48 -346c-4.66699 -59.333 -7 -113.333 -7 -162c0 -226 42 -339 126 -339c5.33301 0 11 0.333008 17 1l29 -30c-11.333 -30.667 -29.666 -46 -54.999 -46z" />
    <glyph glyph-name="S" unicode="S" horiz-adv-x="847" 
d="M749 881c-12 0 -23.8301 6.00195 -35.4971 18.002s-16.5 24.333 -14.5 37c6.66699 50 10 74.333 10 73c0 62 -21.667 93 -65 93c-79.333 0 -201.333 -68 -366 -204c-166.667 -138.667 -250 -245.667 -250 -321c0 -32 32.667 -58 98 -78
c31.333 -10 114.666 -26.667 249.999 -50c118.667 -20.667 205 -44 259 -70c85.333 -40.667 128 -98.334 128 -173.001c0 -88 -50.333 -170.667 -151 -248c-94.667 -72.667 -186 -109 -274 -109h-45c-56.667 0 -110.334 17.333 -161.001 52c-58 39.333 -87 88 -87 146
c0 15.333 4.66699 36 14 62c11.333 30.667 23 46 35 46c24 0 36 -11.667 36 -35c0 -9.33301 -2.16699 -21.333 -6.5 -36s-6.5 -23.334 -6.5 -26.001c0 -34.667 17.667 -63 53 -85c31.333 -19.333 69 -29 113 -29c89.333 0 174.333 26.333 255 79
c88.667 58 133 126.667 133 206c0 42.667 -36 76 -108 100c-36.667 12 -117.334 28 -242.001 48c-58 8.66699 -143.667 26.667 -257 54c-88 30 -132 72.667 -132 128c0 137.333 92.667 279 278 425c174 136.667 324 205 450 205c103.333 0 155 -64.333 155 -193
c0 -20 -6 -43 -18 -69c-13.333 -30.667 -29.333 -46 -48 -46z" />
    <glyph glyph-name="T" unicode="T" horiz-adv-x="870" 
d="M985 968c-12.667 -8.66699 -22.6689 -12.999 -30.002 -12.999c-14.667 0 -20 13 -16 39c10 25.333 15 39.666 15 42.999c0 54 -95.333 81 -286 81c-128.667 0 -279.667 -37 -453 -111l-173 -85c-55.333 -25.333 -90.666 -38 -105.999 -38c-36 0 -54 16 -54 48
c0 32.667 78.333 78 235 136c114 42 212 73 294 93c104.667 26 205.334 39 302.001 39c64.667 0 127 -9.33301 187 -28c85.333 -26 128 -64.667 128 -116c0 -40 -14.333 -69.333 -43 -88zM617.998 -147.999c-12.667 -12 -27.667 -17.999 -45 -17.999c-82 0 -143 70 -183 210
c-27.333 95.333 -41 197 -41 305v168c0 0.666992 8.33301 138.667 25 414c6 93.333 31.333 140.333 76 141c35.333 0.666992 53 -19.333 53 -60c0 -22 -5.66699 -52 -17 -90c-13.333 -48.667 -21 -78.667 -23 -90c-26 -145.333 -32.333 -315 -19 -509
c3.33301 -56.667 13.333 -141.334 30 -254.001c14 -56.667 27.667 -96 41 -118c20.667 -32.667 50.667 -50.667 90 -54c16.667 -2 25 -9 25 -21c0 -10 -4 -18 -12 -24z" />
    <glyph glyph-name="U" unicode="U" horiz-adv-x="1021" 
d="M701 562c-52.667 -152.667 -129.333 -304 -230 -454c-121.333 -180.667 -227.666 -271 -318.999 -271c-41.333 0 -73 16.333 -95 49c-18 27.333 -27 60 -27 98c0 79.333 23.667 205.666 71 378.999l110 377c38.667 138 58 228.667 58 272c0 26 -9 39 -27 39
c-24 0 -63.333 -28.667 -118 -86c-14 -19.333 -36.333 -47 -67 -83c-26 -26.667 -45.333 -40 -58 -40c-20 0 -37 15 -51 45c2 28.667 33.667 68.667 95 120c49.333 42 96 74.667 140 98c28 15.333 57.667 23 89 23c28.667 0 51.667 -17.333 69 -52
c13.333 -26.667 20 -54.334 20 -83.001c0 -84.667 -41 -251.667 -123 -501c-73.333 -222 -110 -387.333 -110 -496c0 -56.667 6 -85 18 -85c106 0 255.667 205.333 449 616c30 64 60.667 152.333 92 265c9.33301 24.667 19.333 62.667 30 114
c3.33301 68.667 6.66602 112.667 9.99902 132c12 60 35 90 69 90c35.333 0 53 -19.667 53 -59c0 -17.333 -4 -41.666 -12 -72.999c-10.667 -44 -16.334 -68.333 -17.001 -73c-10 -54.667 -17.667 -105 -23 -151c-6 -54 -9 -153.333 -9 -298
c0 0.666992 6.33301 -94.666 19 -285.999c10 -143.333 39.667 -215 89 -215c22 0 38.333 17 49 51c4.66699 16 13.334 24 26.001 24c20.667 0 31 -15.667 31 -47c0.666992 -27.333 -9.5 -50.5 -30.5 -69.5s-44.5 -28.5 -70.5 -28.5c-82.667 0 -141 78.667 -175 236
c-19.333 92 -29 200.667 -29 326c0 26 1.33301 58.333 4 97z" />
    <glyph glyph-name="V" unicode="V" horiz-adv-x="1040" 
d="M959 820c-79.333 -208.667 -137.665 -388.666 -174.998 -539.999c-28 -114.667 -60.667 -236.334 -98 -365.001c-12.667 -43.333 -47.334 -65 -104.001 -65c-58 0 -109.667 83.333 -155 250c-13.333 47.333 -36 156.333 -68 327c-68 363.333 -128.333 545 -181 545
c-31.333 0 -73.666 -38 -126.999 -114s-90 -114 -110 -114c-32 0 -48 16 -48 48c0 27.333 34 72.333 102 135c62.667 58 107.667 92 135 102c32 12 59.333 18 82 18c59.333 0 109.666 -62.667 150.999 -188c25.333 -77.333 52.666 -204 81.999 -380
c8 -56.667 24.333 -156 49 -298c31.333 -154.667 57 -232 77 -232c24 0 48 51.333 72 154c44.667 192.667 98.667 385.667 162 579c97.333 298.667 174.666 448 231.999 448v0c14 0 27.833 -7 41.5 -21s16.834 -26.667 9.50098 -38c-50 -72 -93 -155.667 -129 -251z" />
    <glyph glyph-name="W" unicode="W" horiz-adv-x="1560" 
d="M373 183c60.667 173.333 127.336 332.332 200.003 476.999c94 187.333 166.333 281 217 281c42.667 0 64 -21.667 64 -65c0 -12.667 -5.33301 -28 -16 -46c-2.66699 -20 -4 -46.333 -4 -79c0 -163.333 23.333 -334.666 70 -513.999c56.667 -215.333 125 -323 205 -323
c90 0 164.333 103.333 223 310c45.333 159.333 68 302 68 428c0 128.667 -13.333 240.667 -40 336c-40.667 144.667 -106.334 217 -197.001 217c-28 0 -58 -17 -90 -51c-19.333 0 -30.333 0.666992 -33 2s-8.66699 10 -18 26c2.66699 28 27 52.333 73 73
c37.333 16.667 69.666 25 96.999 25c91.333 0 167 -59 227 -177c47.333 -93.333 73.666 -189.333 78.999 -288c0.666992 -15.333 1 -31.666 1 -48.999c0 -195.333 -30 -387.333 -90 -576c-75.333 -235.333 -174 -353 -296 -353c-127.333 0 -225 132 -293 396
c-47.333 186 -71 371.333 -71 556c0 3.33301 0.666992 8.66602 2 15.999c-27.333 -25.333 -92.666 -150.666 -195.999 -375.999c-60.667 -133.333 -111 -278 -151 -434c-6.66699 -27.333 -11 -51.666 -13 -72.999c-6 -67.333 -22.667 -104.666 -50 -111.999
c-7.33301 -1.33301 -14.333 -2 -21 -2c-36.667 0 -53.667 21.333 -51 64c14 183.333 21 274.666 21 273.999c0 222 -2.33301 365.667 -7 431c-16 220.667 -50.667 331 -104 331c-29.333 0 -67.333 -31.333 -114 -94l-94 -137c-26.667 -36 -52.334 -55 -77.001 -57l-40 29
c2 50 46.333 118.833 133 206.5s153 131.5 199 131.5c88 0 146.333 -73.667 175 -221c13.333 -70.667 20 -177.334 20 -320.001c0 -56.667 -2.66699 -144.334 -8 -263.001z" />
    <glyph glyph-name="X" unicode="X" horiz-adv-x="1017" 
d="M343 506c-97.333 -134.667 -163.998 -231.997 -199.998 -291.997c-80.667 -134 -121 -240.333 -121 -319c0 -14 12.333 -36.333 37 -67l-24 -35c-32.667 4 -60.334 27 -83.001 69c-18 33.333 -27 62.666 -27 87.999c0 52.667 32 133 96 241
c43.333 72.667 103 160 179 262c64 86.667 96 130.667 96 132c0 10 -41.333 83 -124 219l-160 258c-37.333 63.333 -56 101.666 -56 114.999c0 38.667 19 58 57 58c22.667 0 43 -15 61 -45c0.666992 -0.666992 26.667 -52.667 78 -156l95 -188
c37.333 -68.667 73.666 -128.334 108.999 -179.001l264 311c160.667 186.667 256.667 280 288 280c11.333 0 23 -5.16699 35 -15.5s18 -21.833 18 -34.5c0 -14.667 -4.66699 -27 -14 -37l-296 -303c-162.667 -168 -244 -261.667 -244 -281c0 -14.667 50.333 -89 151 -223
c125.333 -167.333 226.333 -251 303 -251c18 0 34.833 9.33301 50.5 28s29.167 28 40.5 28c22.667 0 34 -12.333 34 -37c0 -32 -20 -58.333 -60 -79c-32 -16 -64.333 -24 -97 -24c-89.333 0 -182 61 -278 183z" />
    <glyph glyph-name="Y" unicode="Y" horiz-adv-x="910" 
d="M717 -571c-110.667 -176 -257.332 -264 -439.999 -264c-69.333 0 -135.666 28.333 -198.999 85c-61.333 54.667 -105 121.334 -131 200.001c-2.66699 16.667 -3.66699 28.667 -3 36c3.33301 21.333 14 27.333 32 18c10 -4.66699 24 -21.334 42 -50.001
c81.333 -132.667 165.333 -199 252 -199c190 0 340.333 131 451 393c75.333 178 120.666 370.333 135.999 577c12 157.333 18 275.333 18 354c0 122.667 -12 248.334 -36 377.001c-10 -30 -32.333 -103 -67 -219c-56.667 -188 -142.334 -369.667 -257.001 -545
c-118 -182 -221.667 -273 -311 -273c-84 0 -126 54.333 -126 163c0 68 26.667 193.667 80 377l117 398c24 93.333 36 160 36 200c0 52 -10.667 78 -32 78c-22.667 0 -78.167 -40.667 -166.5 -122s-138.833 -122 -151.5 -122c-30 0 -45 16.667 -45 50
c0 31.333 52.667 85.333 158 162s179.333 115 222 115c75.333 0 113 -42.667 113 -128c0 -78 -26.333 -207.667 -79 -389l-121 -405c-24 -94.667 -36 -165.334 -36 -212.001c0 -62 14 -93 42 -93c46 0 129 102.333 249 307c208.667 356 317 628.333 325 817
c0 14 -0.333008 31.667 -1 53c-0.666992 27.333 -1 44.666 -1 51.999c0 39.333 16.333 59 49 59c37.333 0 70 -100.333 98 -301c20.667 -147.333 31 -249.666 31 -306.999c0 -267.333 -12.333 -480.333 -37 -639c-36.667 -236.667 -107 -437.667 -211 -603z" />
    <glyph glyph-name="Z" unicode="Z" horiz-adv-x="974" 
d="M1131 916c-9.33301 -14 -20.335 -20.999 -33.002 -20.999c-18 0 -25 11 -21 33c10.667 65.333 16 94 16 86c0 39.333 -55 59 -165 59c-72.667 0 -172.667 -14.667 -300 -44c-77.333 -18 -212.333 -54 -405 -108c-50 -14 -84.333 -21 -103 -21
c-36.667 0 -55 18.667 -55 56c0 20 17.333 36.667 52 50c56.667 20.667 129.334 39 218.001 55c144.667 25.333 218.334 38.333 221.001 39c160.667 34.667 287 52 379 52c54.667 0 102.667 -10 144 -30c54 -26.667 81 -65.334 81 -116.001
c0 -31.333 -9.66699 -61.333 -29 -90zM1095 -152.999c-10.667 -12 -21.6689 -18 -33.002 -18c-18 0 -27 11.333 -27 34c0 8 2 16.333 6 25c5.33301 13.333 8 30 8 50c0 44 -27.333 80.333 -82 109c-48 24.667 -100.333 37 -157 37c-93.333 0 -192.333 -15.333 -297 -46
c-30.667 -9.33301 -125 -42.666 -283 -99.999c-137.333 -50 -213.666 -75 -228.999 -75c-58 0 -87 33.333 -87 100c0 52.667 43.333 126 130 220c52.667 57.333 114.334 118.666 185.001 183.999c64.667 60.667 205.667 182.334 423 365.001c242 204 371 306 387 306
c12 0 24.5 -5.16699 37.5 -15.5s19.5 -22.5 19.5 -36.5s-60 -68.667 -180 -164c-611.333 -487.333 -917 -767.333 -917 -840c0 -9.33301 8.33301 -14 25 -14c4 0 29 7.33301 75 22l389 122c147.333 42.667 263 64 347 64c69.333 0 133 -20 191 -60
c65.333 -46 98 -104 98 -174c0 -24.667 -9.66699 -56.334 -29 -95.001z" />
    <glyph glyph-name="bracketleft" unicode="[" horiz-adv-x="737" 
d="M668 1225c-12 33.333 -63.667 50.001 -155 50.001c-94.667 0 -189 -17 -283 -51c-26 -10 -46.667 -13.333 -62 -10c-22 4 -31.333 16.333 -28 37c6 30 34 51 84 63c104.667 25.333 191.667 37 261 35c54.667 -0.666992 106.667 -9.33398 156 -26.001
c64.667 -22 97 -51 97 -87c0 -35.333 -8.33301 -53 -25 -53c-19.333 0 -34.333 14 -45 42zM720 -150.999c-6 -3.33301 -21.335 -5 -46.002 -5c-10 57.333 -66.667 86 -170 86c-38 0 -84.667 -6 -140 -18c-7.33301 -2 -14.666 -3 -21.999 -3c-36.667 0 -55 14.333 -55 43
c0 10.667 4.66699 20 14 28c-52 69.333 -78 229.333 -78 480c0 204.667 12.333 393 37 565c2 42.667 8.66699 105.334 20 188.001c2 11.333 9 24 21 38c14 16.667 28.333 25 43 25c39.333 0 55 -23.667 47 -71l-44 -281c-28 -183.333 -42 -373.333 -42 -570
c0 -234.667 30.667 -352 92 -352c8.66699 0 21.334 0.833008 38.001 2.5s29.334 2.5 38.001 2.5c55.333 0 107.666 -8 156.999 -24c69.333 -22.667 104 -55.667 104 -99c0 -16.667 -4.66699 -28.334 -14 -35.001z" />
    <glyph glyph-name="backslash" unicode="\" 
 />
    <glyph glyph-name="bracketright" unicode="]" horiz-adv-x="737" 
d="M223 1282c-110 -4 -195.668 -12.667 -257.001 -26c-26.667 -6 -40 8.33301 -40 43c0 4.66699 0.666992 9.33398 2 14.001c10.667 34 105.667 51 285 51c189.333 0 293 -26.333 311 -79c8.66699 -25.333 -0.666016 -38 -27.999 -38c-7.33301 0 -15.666 1.33301 -24.999 4
c-82.667 23.333 -165.334 33.666 -248.001 30.999zM358.999 -82c-108 -23.333 -201.334 -51.667 -280.001 -85c-32.667 -14.667 -52.667 -22 -60 -22c-34 0 -51 17.667 -51 53c0 38.667 108.333 80.667 325 126c-46.667 66 -70 208.333 -70 427c0 188.667 15 399.667 45 633
c2.66699 42.667 9.33398 105 20.001 187c2.66699 12 9.66699 24.667 21 38c14 16.667 28.333 25 43 25c39.333 0 55.333 -23.333 48 -70l-45 -281c-34.667 -233.333 -52 -442 -52 -626c0 -210 29.667 -315 89 -315c24.667 0 37 -11.333 37 -34
c0 -27.333 -23.333 -46 -70 -56z" />
    <glyph glyph-name="asciicircum" unicode="^" 
 />
    <glyph glyph-name="underscore" unicode="_" 
 />
    <glyph glyph-name="grave" unicode="`" horiz-adv-x="626" 
d="M442 786c-8.66699 -14.667 -23.667 -17.9971 -45 -9.99707c-82.667 32 -137.667 54.333 -165 67c-79.333 35.333 -126.666 65.666 -141.999 90.999c-4.66699 7.33301 -7 14.333 -7 21v0c0 19.333 13.667 33.666 41 42.999c26.667 8.66699 44.667 7.33398 54 -3.99902
c42 -52.667 123.667 -108.334 245 -167.001c23.333 -10.667 29.666 -24.334 18.999 -41.001z" />
    <glyph glyph-name="a" unicode="a" horiz-adv-x="734" 
d="M598 -11c-63.333 22.667 -95.002 96.6689 -95.002 222.002c0 13.333 0.333008 27 1 41c-66 -88 -138.667 -168.333 -218 -241c-102 -93.333 -182.333 -140 -241 -140c-19.333 0 -36 5.33301 -50 16c-24 18 -36 47.333 -36 88v0c0 83.333 44.667 195.666 134 336.999
c86.667 135.333 181.334 246.666 284.001 333.999c112 95.333 195 125.333 249 90c25.333 -16 38 -49.667 38 -101c0 -61.333 -21 -94 -63 -98c-29.333 -2 -44 8.33301 -44 31c0 3.33301 0.666992 6.33301 2 9c12.667 31.333 18.667 59.333 18 84
c0 14.667 -1.66699 21.667 -5 21c-66 -12 -172.833 -113.833 -320.5 -305.5s-221.5 -323.834 -221.5 -396.501c0 -25.333 11.333 -38 34 -38c58 0 149 75 273 225c86 104 133 161.667 141 173c38 52.667 59.667 101 65 145c3.33301 30 19.333 45 48 45v0
c40.667 0 57 -19.667 49 -59c-32.667 -171.333 -49 -275.666 -49 -312.999c0 -68 15 -106 45 -114c10.667 -2.66699 22 -0.666992 34 6c10 6 15.667 12 17 18c6.66699 28.667 23.334 43 50.001 43c16 0 24 -8.66699 24 -26c0 -7.33301 -2 -16.333 -6 -27
c-20.667 -52 -58 -78 -112 -78c-14.667 0 -29.667 3 -45 9z" />
    <glyph glyph-name="b" unicode="b" horiz-adv-x="854" 
d="M47 107c68 114.667 152.334 216.002 253.001 304.002c122 106.667 235.667 160 341 160c34.667 0 68 -9.66699 100 -29c42 -26 63 -61 63 -105c0 -104.667 -75.667 -231.667 -227 -381s-276.333 -224 -375 -224c-81.333 0 -122 30.333 -122 91
c0 33.333 16 66.666 48 99.999c8 8 18.667 12 32 12c14.667 0 22 -5.33301 22 -16c0 -8 -4.33301 -18.333 -13 -31c-18 -26 -27 -44.333 -27 -55c0 -17.333 12.667 -26 38 -26c83.333 0 195.666 71 336.999 213c140 140 210 247.667 210 323c0 40.667 -27.333 61 -82 61
c-132 0 -295.667 -128 -491 -384l-3 -4l-8 -14c-42 -70.667 -73.333 -106 -94 -106c-44 0 -72.667 30.333 -86 91c-4.66699 25.333 -7 72.666 -7 141.999c0 116 30.667 293.333 92 532c63.333 245.333 113.333 368 150 368c11.333 0 24 -4.66699 38 -14
c16.667 -10.667 25 -23.334 25 -38.001c0 -4 -1 -8.33301 -3 -13c-68 -173.333 -107.667 -277.666 -119 -312.999c-69.333 -212 -104 -396.667 -104 -554c0 -32.667 4 -62.667 12 -90z" />
    <glyph glyph-name="c" unicode="c" horiz-adv-x="676" 
d="M540 588c-15.333 0 -34.3301 12.001 -56.9971 36.001s-45.334 36 -68.001 36c-82 0 -165.667 -75.667 -251 -227c-75.333 -134 -113 -238.667 -113 -314c0 -84 35.333 -126 106 -126c70 0 139.333 23 208 69c63.333 42.667 117.666 99 162.999 169
c4 7.33301 9.33301 11 16 11c8 0 15.667 -5.33301 23 -16s10 -19.334 8 -26.001c-5.33301 -21.333 -42.666 -66 -111.999 -134c-63.333 -62 -102 -96.667 -116 -104c-66 -36 -107.333 -54 -124 -54c-2 0 -10.667 -0.833008 -26 -2.5s-23.666 -2.5 -24.999 -2.5
c-69.333 0 -121.666 25 -156.999 75c-29.333 41.333 -44 93 -44 155c0 98 44 217.333 132 358c101.333 162 208.666 243.333 321.999 244c19.333 0 47.666 -8.33301 84.999 -25c48.667 -21.333 74 -47.333 76 -78c1.33301 -13.333 -3.83398 -24 -15.501 -32
s-21.834 -12 -30.501 -12z" />
    <glyph glyph-name="d" unicode="d" horiz-adv-x="863" 
d="M582 312l-37 -46.001c-214 -271.333 -369.667 -407 -467 -407h-20c-66.667 0 -100 34 -100 102c0 56 29.667 142 89 258c62.667 124.667 134 230 214 316c95.333 102 183 153 263 153c30.667 0 62 -11.333 94 -34l59 318c24.667 134 52.334 201 83.001 201
c12 0 24.167 -5.33301 36.5 -16s18.5 -23 18.5 -37c0 -3.33301 -8.33301 -32.666 -25 -87.999c-84.667 -289.333 -127 -567 -127 -833c0 -153.333 23 -230 69 -230c2.66699 1.33301 7.66699 4.16602 15 8.49902s21.666 11.5 42.999 21.5
c11.333 -11.333 17 -22.666 17 -33.999c0 -15.333 -10.333 -29.333 -31 -42c-18 -11.333 -35 -17 -51 -17c-96.667 0 -145 111.333 -145 334c0 20 0.666992 44 2 72zM535 618.999c-74.667 13.333 -179.667 -76 -315 -268c-128 -182 -192 -311 -192 -387
c0 -18.667 7.33301 -28 22 -28c58 0 156.333 69.667 295 209c124.667 126 199 216 223 270c14.667 32.667 22 69.667 22 111c0 20.667 -5.5 40.5 -16.5 59.5s-23.833 30.167 -38.5 33.5z" />
    <glyph glyph-name="e" unicode="e" horiz-adv-x="626" 
d="M102 291c-12 -10.667 -24.8311 -42.999 -38.498 -96.999s-20.5 -101 -20.5 -141c0 -52 34.333 -78 103 -78c66 0 143.333 38.333 232 115c86 74.667 145.667 151.667 179 231h32c12.667 -12 17 -23.333 13 -34c-38.667 -112 -103.334 -205 -194.001 -279
c-86 -71.333 -172.333 -107 -259 -107c-64 0 -112.333 22 -145 66c-32 42 -46 98.667 -42 170c5.33301 100 58.666 224 159.999 372c108.667 158.667 207.667 238 297 238c30 0 53 -14 69 -42c12 -20.667 18 -42.334 18 -65.001c0 -65.333 -27.667 -140.333 -83 -225
c-65.333 -102 -140.333 -153 -225 -153c-40 0 -70.667 8.66699 -92 26zM407.002 677.001c-25.333 -6 -48.333 -21.3301 -69 -45.9971c-138.667 -162.667 -208 -257.334 -208 -284.001c0 -7.33301 15.333 -12 46 -14c52 -2.66699 108.667 34.666 170 111.999
c60 75.333 90 142.666 90 201.999c0 25.333 -9.66699 35.333 -29 30z" />
    <glyph glyph-name="f" unicode="f" horiz-adv-x="496" 
d="M564 877c-14 4.66699 -23.002 17.332 -27.002 37.999l-6 51c-3.33301 28 -15 56.333 -35 85c-22 32.667 -45.333 49 -70 49c-69.333 0 -123 -83.667 -161 -251c-19.333 -84.667 -34.333 -214.667 -45 -390c8 1.33301 26.333 5.33301 55 12c23.333 5.33301 42 8 56 8
c58.667 0 97.334 -22.333 116.001 -67c3.33301 -8 5 -16.333 5 -25v0c0 -14.667 -4.66699 -23.667 -14 -27c-10 -3.33301 -22.333 3.33398 -37 20.001c-19.333 22.667 -43 34 -71 34c-20 0 -43.333 -4.66699 -70 -14s-43.667 -19.333 -51 -30c-4 -6.66699 -6 -25 -6 -55
c0 -40.667 4.83301 -112.834 14.5 -216.501s14.5 -163.167 14.5 -178.5c0 -44 -18 -66 -54 -66c-35.333 0 -51 23.667 -47 71c0.666992 11.333 1 16.333 1 15c0 32 -3 165.667 -9 401c-21.333 -10.667 -56 -30.334 -104 -59.001c-17.333 -10.667 -28.666 -16 -33.999 -16
c-23.333 0 -35 16.667 -35 50c0 10.667 2.66699 18.334 8 23.001c17.333 16 68.333 43.333 153 82l19 9c20 226.667 38.333 372.667 55 438c49.333 198.667 134.666 298 255.999 298c42.667 0 80.334 -23.667 113.001 -71c29.333 -42 44 -84.333 44 -127
c0 -51.333 -11.333 -81.666 -34 -90.999z" />
    <glyph glyph-name="g" unicode="g" horiz-adv-x="770" 
d="M270 -701c-84 0 -160.502 38.332 -229.502 114.999s-103.5 157.667 -103.5 243c0 38.667 13 58 39 58c18.667 0 28 -11.333 28 -34c-2 -76 23 -144.5 75 -205.5s110 -91.5 174 -91.5c132 0 229.667 97.667 293 293c40.667 124.667 61 249 61 373c0 248 -22 372 -66 372
c-2.66699 0 -18 -21.333 -46 -64c-83.333 -126 -141 -207.667 -173 -245c-85.333 -99.333 -163.666 -149 -234.999 -149c-38 0 -67.667 14.333 -89 43c-18.667 24.667 -28 54.667 -28 90c0 112 71.167 256.833 213.5 434.5s258.5 266.5 348.5 266.5
c38 0 67.667 -20.333 89 -61c17.333 -30.667 26 -62 26 -94c0 -56 -15.333 -84 -46 -84c-37.333 0 -53.333 33.667 -48 101c2.66699 42 -5 63 -23 63c-49.333 0 -116.333 -48.333 -201 -145c-62 -70.667 -111 -136.667 -147 -198c-27.333 -32 -55.333 -77 -84 -135
c-34 -68 -51 -122.333 -51 -163c0 -28.667 5 -43 15 -43c48.667 0 112 42 190 126c28.667 30.667 92.334 108.334 191.001 233.001c66 84 108.667 126 128 126c44.667 0 78.667 -66 102 -198c15.333 -89.333 23 -176.666 23 -261.999c0 -212.667 -42 -393.334 -126 -542.001
s-184 -223 -300 -223z" />
    <glyph glyph-name="h" unicode="h" horiz-adv-x="694" 
d="M73 193l9.00293 21.0039c106.667 262.667 204.667 394 294 394c74.667 0 121.667 -109 141 -327c3.33301 -52 11 -123 23 -213c10.667 -55.333 25.334 -83 44.001 -83c16 0 30.5 5.83301 43.5 17.5s22.167 17.5 27.5 17.5c19.333 0 29 -9.66699 29 -29
c0 -18 -14 -34.667 -42 -50c-24 -12.667 -43.667 -19 -59 -19c-82 0 -133.667 108.333 -155 325c-4 51.333 -11.667 121.666 -23 210.999c-9.33301 54.667 -21.333 82 -36 82c-38.667 0 -88.334 -61.333 -149.001 -184c-82 -164.667 -129.333 -319.334 -142 -464.001
c-0.666992 -8.66699 -6.83398 -18 -18.501 -28s-23.167 -15 -34.5 -15c-10.667 0 -18.334 5.33301 -23.001 16c-10 25.333 -15 110.666 -15 255.999c0 138.667 21.667 339.334 65 602.001c46.667 288 89.667 432 129 432c33.333 0 50 -16.333 50 -49
c0 -0.666992 -11.667 -37.334 -35 -110.001c-24.667 -77.333 -42.334 -145.333 -53.001 -204c-42 -242.667 -65.333 -442.334 -70 -599.001z" />
    <glyph glyph-name="i" unicode="i" horiz-adv-x="315" 
d="M123 869c-14.667 0 -27.167 6.33398 -37.5 19.001s-15.5 24.667 -15.5 36c0 13.333 5.16699 26.666 15.5 39.999s23.5 20 39.5 20c34.667 0 52 -19 52 -57c0 -38.667 -18 -58 -54 -58zM183 -118.999c-63.333 0 -111.667 49.334 -145 148.001
c-23.333 68 -35 134.333 -35 199c0 59.333 7.33301 132.333 22 219c22 125.333 52 188 90 188c30 0 45 -17.333 45 -52c0 -16 -9.33301 -46 -28 -90c-19.333 -48 -33.333 -129.667 -42 -245c1.33301 -54.667 1.33301 -87.334 0 -98.001l26 -124
c17.333 -54.667 43 -82 77 -82c8 0 13.333 1.33301 16 4c9.33301 12.667 22.333 23 39 31c14 -12 21 -23.333 21 -34c0 -18 -11.667 -33.667 -35 -47c-18.667 -11.333 -35.667 -17 -51 -17z" />
    <glyph glyph-name="j" unicode="j" horiz-adv-x="368" 
d="M213 787c-37.333 0 -56 16 -56 48c0 27.333 14.333 41 43 41c39.333 0 59 -12 59 -36c0 -35.333 -15.333 -53 -46 -53zM-157 -717c-96 0 -178.001 32.666 -246.001 97.999s-102 146.333 -102 243c0 32 11.333 48 34 48c23.333 0 34 -12.667 32 -38
c-4.66699 -67.333 18.5 -129.666 69.5 -186.999s109.833 -86 176.5 -86c143.333 0 248.666 111 315.999 333c42.667 140 64 283 64 429c0 184 -16.333 337.667 -49 461c-4 14 -2.33301 30.333 5 49c8.66699 24.667 25.334 37 50.001 37c51.333 0 77 -154.333 77 -463
c0 -106.667 -2.33301 -182.334 -7 -227.001c-17.333 -171.333 -63 -325.666 -137 -462.999c-83.333 -156 -177.666 -234 -282.999 -234z" />
    <glyph glyph-name="k" unicode="k" horiz-adv-x="708" 
d="M644 -153l-17.001 4l2 -2c-10.667 5.33301 -16 13 -16 23c0 6 3 15.833 9 29.5s9 25.5 9 35.5c0 92.667 -61.333 162.334 -184 209.001c-84.667 32 -171 48 -259 48c-1.33301 0 -12.333 -0.333008 -33 -1s-33 -1 -37 -1c-29.333 0 -44 21.667 -44 65c0 4 21 26.667 63 68
c48.667 47.333 93.667 98.333 135 153c48.667 64.667 93.334 148.667 134.001 252c14 34.667 30 52 48 52c34.667 0 52 -20 52 -60c0 -77.333 -101.667 -222.333 -305 -435c145.333 -27.333 250 -56.333 314 -87c118.667 -56.667 178 -137.667 178 -243
c0 -12.667 -4 -31.334 -12 -56.001c-10.667 -32.667 -23 -50.667 -37 -54zM154.999 -144c-79.333 18 -133.332 84.665 -161.999 199.998c-16 62.667 -25 156.334 -27 281.001c-0.666992 54.667 16 196 50 424c41.333 274.667 81.666 412 120.999 412
c6.66699 0 16.667 -5.33301 30 -16c15.333 -12.667 23 -25.667 23 -39c0 -3.33301 -0.666992 -6.66602 -2 -9.99902c-89.333 -258 -134 -511.667 -134 -761c0 -134 14.667 -250 44 -348c14 -46 31 -71.667 51 -77c29.333 -8 44 -19.667 44 -35
c0 -8 -4.16699 -15.667 -12.5 -23s-16.833 -10 -25.5 -8z" />
    <glyph glyph-name="l" unicode="l" horiz-adv-x="335" 
d="M6 235c-0.666992 28 -1 58.999 -1 92.999c0 174 10 350 30 528c22.667 197.333 48 296 76 296c34.667 0 52 -19 52 -57c-0.666992 -6 -2.66699 -17.667 -6 -35l-12 -71c-12.667 -70.667 -21.334 -125 -26.001 -163c-18.667 -158.667 -28 -338.667 -28 -540
c0 -243.333 42.667 -365 128 -365c15.333 0 27 6 35 18h23l18 -18v2l1 -3c1.33301 -5.33301 2 -11.666 2 -18.999c-22.667 -28.667 -51.334 -43 -86.001 -43c-51.333 0 -95.666 29.333 -132.999 88c-43.333 68 -67.666 164.333 -72.999 289z" />
    <glyph glyph-name="m" unicode="m" horiz-adv-x="1200" 
d="M1063 -33c-57.333 0 -104.329 41.6689 -140.996 125.002c-28.667 64.667 -43 123.667 -43 177c0 -12.667 0.666992 19.666 2 96.999c1.33301 50.667 0.666016 90 -2.00098 118c-3.33301 38.667 -10 58 -20 58c-2 0 -19 -25.333 -51 -76
c-108.667 -169.333 -167.334 -260 -176.001 -272c-90.667 -125.333 -161.667 -188 -213 -188s-79.333 55.667 -84 167c-1.33301 30.667 1.66699 127.667 9 291c1.33301 36.667 -1.66699 55 -9 55c-21.333 0 -77.333 -82.333 -168 -247
c-92.667 -167.333 -142 -281.666 -148 -342.999c-2 -24.667 -17.333 -37 -46 -37c-13.333 0 -25.333 21.333 -36 64c-7.33301 32.667 -11 57 -11 73c0 122 2.66699 227 8 315c5.33301 81.333 15.666 150.333 30.999 207c16 61.333 34.333 92 55 92
c14.667 0 28.167 -5.33301 40.5 -16s17.166 -21 14.499 -31c-39.333 -142 -59.666 -288 -60.999 -438c72 129.333 122 215.666 150 258.999c81.333 124.667 145 187 191 187c55.333 0 81.666 -65.667 78.999 -197c-0.666992 -14 -2.66699 -45.667 -6 -95
c-3.33301 -45.333 -5 -81.333 -5 -108c0 -51.333 5 -90.333 15 -117c24 7.33301 65.667 50.666 125 129.999c48.667 66.667 90 128.667 124 186c88 152 152 228 192 228s65.333 -38.333 76 -115l15 -218c12 -178 43.333 -267.667 94 -269
c19.333 -0.666992 36.5 9.16602 51.5 29.499s27.167 30.5 36.5 30.5c18.667 0 28 -10 28 -30c0 -27.333 -16.667 -50.666 -50 -69.999c-26 -14.667 -48.333 -22 -67 -22z" />
    <glyph glyph-name="n" unicode="n" horiz-adv-x="716" 
d="M81 238l16.9971 30.001c143.333 242.667 245 364 305 364c56.667 0 94.334 -41.667 113.001 -125l18 -190c10.667 -104 17.334 -163 20.001 -177c15.333 -93.333 37.666 -140 66.999 -140c12.667 0 30 11.667 52 35l37 -12c1.33301 -26 -10 -47.333 -34 -64
c-18 -12.667 -34.667 -19 -50 -19c-96 0 -155.333 108.333 -178 325c-4 51.333 -11 121.666 -21 210.999c-7.33301 54.667 -16.666 82 -27.999 82c-22.667 0 -78.5 -70.167 -167.5 -210.5s-151.833 -269.833 -188.5 -388.5c-9.33301 -32 -25.666 -48 -48.999 -48
c-30 0 -43.667 15 -41 45c0.666992 10.667 22 152 64 424c2 34 5.33301 81 10 141c5.33301 54.667 25.333 82 60 82c20 0 33.667 -7.33301 41 -22l12 -45z" />
    <glyph glyph-name="o" unicode="o" horiz-adv-x="628" 
d="M172 -98c-58 -4.66699 -104.333 14.999 -139 58.999c-32 40 -48 90.333 -48 151c0 102.667 24.5 213.834 73.5 333.501s94.833 179.5 137.5 179.5c38.667 0 58 -16.333 58 -49c0 -9.33301 -11 -28.666 -33 -57.999c-105.333 -138.667 -158 -268.334 -158 -389.001
c0 -104 26 -156 78 -156c78.667 0 155.667 71.667 231 215c66 124 99 223.667 99 299c0 108.667 -27 163 -81 163c-41.333 0 -85.333 -22 -132 -66l-15 9c-9.33301 5.33301 -14 13.333 -14 24c0 22.667 24 45.667 72 69c40 19.333 69.667 29 89 29
c108 0 164 -83.333 168 -250c2 -80.667 -33.667 -187 -107 -319c-85.333 -154 -178.333 -235.333 -279 -244z" />
    <glyph glyph-name="p" unicode="p" horiz-adv-x="706" 
d="M120 405c136.667 198 272.333 297.001 407 297.001c88.667 0 133 -63.333 133 -190c0 -104.667 -46.667 -220.667 -140 -348c-96.667 -132 -189.667 -198 -279 -198c-67.333 0 -101 34.333 -101 103c0 21.333 7 48.333 21 81h42
c1.33301 -14 0.666016 -28.333 -2.00098 -43c-2.66699 -17.333 -4 -31 -4 -41c0 -15.333 9 -23 27 -23c84.667 0 166.334 67.333 245.001 202c69.333 118 104 214.667 104 290c0 67.333 -18 101 -54 101c-72 0 -156.333 -59.333 -253 -178c-88 -107.333 -139 -196 -153 -266
c-25.333 -120 -38.666 -259.667 -39.999 -419c-2.66699 -223.333 30 -335 98 -335c0.666992 0 4.16699 1.16699 10.5 3.5l50.5 18.5v-38c0 -12.667 -10.667 -23.667 -32 -33c-17.333 -8 -30 -11.667 -38 -11c-56 5.33301 -99.333 46 -130 122
c-23.333 58.667 -36.333 128 -39 208c-1.33301 37.333 -2 75.666 -2 114.999c0 142 16.333 390.667 49 746c9.33301 97.333 37.666 146 84.999 146c30 0 45 -16.333 45 -49c0 -4 -0.333008 -8 -1 -12z" />
    <glyph glyph-name="q" unicode="q" horiz-adv-x="714" 
d="M590 -583c-70.667 0 -123.334 37.334 -158.001 112.001c-24 52.667 -36 112 -36 178c0 118.667 29 315.667 87 591l1 7c-186 -240 -329.667 -360 -431 -360h-21c-30 0 -55 14.667 -75 44c-16 24 -24 47.667 -24 71c0 99.333 79.667 244.333 239 435
c157.333 189.333 273.333 284 348 284c63.333 0 95 -42.333 95 -127c0 -61.333 -18.333 -92 -55 -92c-29.333 0 -44 16.667 -44 50c0 4.66699 0.5 9.16699 1.5 13.5s5 17.166 12 38.499s10.5 33.333 10.5 36c0 8.66699 -4 13 -12 13c-29.333 0 -102.333 -62 -219 -186
c-46.667 -49.333 -102.667 -122.666 -168 -219.999c-86 -126.667 -129 -217 -129 -271c0 -6.66699 5 -10 15 -10c52 0 141.667 59.667 269 179c122 114 191 196 207 246l18 69c10.667 26 28.667 39 54 39c36.667 0 55 -20 55 -60h-18c13.333 2.66699 19 0.666992 17 -6
l-6 -20c-23.333 -80.667 -45.333 -167.334 -66 -260.001c-48 -214 -72 -389.333 -72 -526c0 -43.333 6 -83 18 -119c18 -58 47.333 -87 88 -87c32.667 0 57.334 16.167 74.001 48.5s29.334 48.5 38.001 48.5c20.667 0 31 -11 31 -33c0 -35.333 -17.333 -66 -52 -92
c-30.667 -22.667 -61.334 -34 -92.001 -34z" />
    <glyph glyph-name="r" unicode="r" horiz-adv-x="536" 
d="M88 449c82.667 210.667 171.333 315.999 266 315.999c62.667 0 99.334 -28.667 110.001 -86c6 -34.667 -5.33301 -52 -34 -52c-9.33301 0 -16 4 -20 12c-2.66699 6 -5.33398 14.333 -8.00098 25l-2 11c-2.66699 13.333 -11.334 20 -26.001 20
c-32.667 0 -74.334 -34.667 -125.001 -104c-59.333 -82 -101 -156.667 -125 -224c-25.333 -72 -37.333 -154.667 -36 -248c0 -3.33301 2.33301 -57.666 7 -162.999c0 -12.667 -6.5 -24.5 -19.5 -35.5s-25.833 -16.5 -38.5 -16.5c-37.333 0 -53.666 29 -48.999 87
c12 134.667 18 246.667 18 336c0 92 -6 196.667 -18 314c-1.33301 13.333 4.33398 27 17.001 41s25.667 21 39 21c22 0 38 -11 48 -33c7.33301 -16 10 -31 8 -45c-8.66699 -70 -12.667 -128.667 -12 -176z" />
    <glyph glyph-name="s" unicode="s" horiz-adv-x="545" 
d="M463 621c-4 0 -17.168 6.00195 -39.501 18.002s-39.166 18.333 -50.499 19c-45.333 4 -108.666 -29 -189.999 -99c-84 -72 -126 -133.667 -126 -185c0 -27.333 48.667 -41 146 -41c188 0 282 -52.333 282 -157c0 -74 -41.667 -140.333 -125 -199
c-76 -53.333 -151.667 -80 -227 -80c-33.333 0 -64.333 10.333 -93 31c-33.333 23.333 -50 53.666 -50 90.999c0 15.333 6.66699 33.333 20 54c15.333 24 31.666 36 48.999 36c4.66699 0 9.33398 -1 14.001 -3c-2.66699 -23.333 -7 -41.333 -13 -54
c-3.33301 -7.33301 -5 -15 -5 -23c0 -30 18 -45 54 -45c55.333 0 118.666 18 189.999 54c79.333 40 119 82 119 126c0 27.333 -13.667 50 -41 68c-22.667 14.667 -47.667 22.667 -75 24l-192 7c-32 1.33301 -63 8 -93 20c-40.667 16 -61 37.333 -61 64
c0 66 51.833 149.5 155.5 250.5s191.167 151.5 262.5 151.5c20 0 44.333 -7.66699 73 -23c34 -18.667 51 -39.334 51 -62.001c0 -28.667 -11.667 -43 -35 -43z" />
    <glyph glyph-name="t" unicode="t" horiz-adv-x="537" 
d="M273 566c30 7.33301 65.999 11.002 107.999 11.002c19.333 0 42.333 -7 69 -21c34 -18.667 51 -40.667 51 -66c0 -4.66699 -1 -9 -3 -13l-1 -3c0 1.33301 -1.33301 -1.33398 -4 -8.00098c-7.33301 -2.66699 -10 -4.33398 -8 -5.00098h-2c-4 -2 -8.66699 -3 -14 -3
c-4 0 -9.33301 3.66699 -16 11c-13.333 32 -35.333 48 -66 48c-10.667 0 -22.667 -2 -36 -6c-28 -7.33301 -56.667 -20 -86 -38c0 -3.33301 -0.333008 -8.66602 -1 -15.999c-8.66699 -67.333 -11 -148.666 -7 -243.999c6.66699 -176.667 46.334 -265 119.001 -265
c20.667 0 39.667 10.667 57 32s29.333 32 36 32c21.333 0 32 -10 32 -30c0 -24 -19.667 -46.667 -59 -68c-32.667 -17.333 -57 -26 -73 -26c-60.667 0 -109 33 -145 99c-25.333 47.333 -41 99.666 -47 156.999c-10.667 101.333 -11.334 201.666 -2.00098 300.999
c-37.333 -13.333 -82.333 -39.333 -135 -78c-6.66699 -5.33301 -13 -8 -19 -8c-18 0 -27 18.667 -27 56c0 23.333 55 61 165 113c6.66699 1.33301 13.334 3 20.001 5c4.66699 45.333 12 113 22 203s32.333 135 67 135c28.667 0 44 -18.667 46 -56z" />
    <glyph glyph-name="u" unicode="u" horiz-adv-x="691" 
d="M427 345c-71.333 -149.333 -117.667 -240.667 -139 -274c-71.333 -110 -146.666 -165 -225.999 -165c-62.667 0 -94 62.667 -94 188c0 36 19 133 57 291c44 180 81 270.667 111 272c14.667 0 28.834 -4.5 42.501 -13.5s20.5 -19.167 20.5 -30.5
c-0.666992 -5.33301 -3 -13.666 -7 -24.999l-18 -46c-84.667 -228 -127 -388 -127 -480c0 -56 9.66699 -84 29 -84c24 0 61.333 31 112 93c54.667 67.333 108.667 153.333 162 258c60 117.333 90.333 206.666 91 267.999c0.666992 21.333 7.16699 41 19.5 59
s27.166 27 44.499 27c33.333 0 50 -16.667 50 -50c0 -5.33301 -5.83301 -38 -17.5 -98s-17.5 -117 -17.5 -171c0 -209.333 32.333 -314 97 -314c15.333 0 32 9 50 27c8 8 19.667 17 35 27c14.667 -12.667 22 -23 22 -31c0 -24 -16.333 -45.333 -49 -64
c-26.667 -15.333 -48.334 -23 -65.001 -23c-104 0 -164.667 113.667 -182 341z" />
    <glyph glyph-name="v" unicode="v" horiz-adv-x="633" 
d="M662 630h-2c-40 2.66699 -100.333 -81.333 -181 -252l-148 -348c-36 -83.333 -62.667 -125 -80 -125c-22 0 -45.333 37.333 -70 112c-14.667 48 -41.667 127.333 -81 238c-19.333 48 -50.333 112.333 -93 193l-66 124c-2.66699 6 -4 12 -4 18
c0 13.333 7 24.666 21 33.999c11.333 7.33301 22.333 11 33 11c26 0 69.333 -72.333 130 -217c3.33301 -7.33301 41 -105 113 -293c20.667 -54 29.667 -81 27 -81l35 90c68.667 175.333 115 286.333 139 333c76.667 148.667 151.667 223 225 223c29.333 0 44 -12.667 44 -38
c0 -12 -8.33301 -20 -25 -24c-5.33301 -1.33301 -11 -0.666016 -17 2.00098z" />
    <glyph glyph-name="w" unicode="w" horiz-adv-x="1026" 
d="M706 32c-64 0 -127.002 52.334 -189.002 157.001c-40.667 69.333 -76.667 152.666 -108 249.999c-24.667 -63.333 -65.334 -161.666 -122.001 -294.999c-79.333 -168.667 -147 -253 -203 -253c-40 0 -69 36.667 -87 110c-12 50.667 -16.667 96 -14 136
c4 71.333 12 171.666 24 300.999c14.667 107.333 39.334 161 74.001 161c30.667 0 46 -19.667 46 -59c0 -4 -1 -10 -3 -18c-42.667 -194 -64 -333.667 -64 -419c-6.66699 -82 -2 -123 14 -123c37.333 0 89.333 68.667 156 206c44 90 81 178 111 264l34 120
c14 47.333 31 71 51 71c9.33301 0 20.333 -3.66699 33 -11c16.667 -10.667 24.334 -23.667 23.001 -39c-6 -57.333 10.667 -145.333 50 -264c48 -144.667 108 -217 180 -217c34.667 0 69.834 48.833 105.501 146.5s53.5 193.167 53.5 286.5c0 21.333 -1.33301 41.333 -4 60
c-10.667 88 -34.667 132 -72 132c-2 0 -8.66699 -2 -20 -6s-19 -6 -23 -6c-28.667 0 -43 5.33301 -43 16c0 11.333 11.5 23.5 34.5 36.5s44.5 19.5 64.5 19.5c52 0 92 -40 120 -120c21.333 -59.333 32 -122 32 -188c0 -62.667 -22.667 -147.667 -68 -255
c-55.333 -133.333 -117.333 -200 -186 -200z" />
    <glyph glyph-name="x" unicode="x" horiz-adv-x="791" 
d="M657 44c-86.667 0 -216.001 99.333 -388.001 298c-38.667 -39.333 -84 -105 -136 -197c-56.667 -101.333 -85 -174.666 -85 -219.999c0 -14 5.66699 -35 17 -63l-39 -14c-10.667 9.33301 -22.5 27.166 -35.5 53.499s-19.5 45.5 -19.5 57.5c0 60.667 39 150.667 117 270
s117 175.666 117 168.999c0 0.666992 -38.5 48 -115.5 142s-115.5 156 -115.5 186c0 9.33301 3.83301 19.333 11.5 30s15.834 16 24.501 16c20 0 65.667 -49.167 137 -147.5s110 -147.5 116 -147.5c0.666992 0 47.667 64.5 141 193.5s152.333 193.5 177 193.5
c13.333 0 24.333 -7.33301 33 -22c7.33301 -12 11 -23.333 11 -34c0 -14.667 -51.333 -79.667 -154 -195s-154 -181 -154 -197s44.5 -66 133.5 -150s143.167 -129 162.5 -135c3.33301 -0.666992 13.333 -4.66699 30 -12c12.667 -4.66699 23 -7 31 -7c19.333 0 41 11 65 33
c24.667 3.33301 37 -5.66699 37 -27c0 -17.333 -18.667 -34.666 -56 -51.999c-30.667 -14.667 -51.667 -22 -63 -22z" />
    <glyph glyph-name="y" unicode="y" horiz-adv-x="707" 
d="M140 -642c-96.667 0 -183.334 40.9971 -260.001 122.997c-67.333 70.667 -101 135 -101 193c0 28 11.333 42 34 42c12.667 0 22.334 -10 29.001 -30l12 -45c20 -55.333 51.333 -101 94 -137c44.667 -38 94.667 -59.333 150 -64c142 -12 254.333 66.333 337 235
c66.667 136 100 287 100 453c0 114 -16.333 255 -49 423c-56.667 -146 -103.667 -254.333 -141 -325c-76 -143.333 -150 -226.666 -222 -249.999c-12.667 -4 -24.667 -6 -36 -6c-64 0 -96 49.333 -96 148c0 90.667 23.667 218.334 71 383.001
c50 173.333 93.667 261.666 131 264.999c13.333 1.33301 27.166 -3.5 41.499 -14.5s21.5 -21.833 21.5 -32.5c0 -3.33301 -0.666992 -6.33301 -2 -9c-39.333 -61.333 -76 -138 -110 -230c-47.333 -128.667 -71 -246.667 -71 -354c0 -56.667 8.33301 -85 25 -85
c20.667 0 54.334 35.333 101.001 106c22.667 34 45.334 72 68.001 114c94.667 148.667 149.667 271.334 165 368.001c5.33301 34.667 6.33301 65.334 3 92.001c-5.33301 45.333 11 68 49 68c36 0 57.667 -33.667 65 -101l1 -13c16 -148.667 34.333 -240.667 55 -276
c11.333 -19.333 17 -111.333 17 -276c0 -151.333 -33 -302.333 -99 -453c-90.667 -208 -218.334 -312 -383.001 -312z" />
    <glyph glyph-name="z" unicode="z" horiz-adv-x="786" 
d="M-15 -51c-25.333 14.667 -38 28.335 -38 41.002c0 38 34.333 87.667 103 149c102.667 91.333 216 182.333 340 273c128.667 95.333 196.5 146 203.5 152l10.5 9c-68.667 4 -167.334 -5.33301 -296.001 -28c-90 -16 -159 -31 -207 -45
c-3.33301 -1.33301 -7.33301 -2 -12 -2c-40 0 -60 16.333 -60 49c0 17.333 13.333 32.666 40 45.999c21.333 10.667 38 16 50 16c40.667 0 184.667 11.667 432 35c90.667 0 136 -23 136 -69c0 -22.667 -29.667 -59 -89 -109l-124 -95l-286 -215
c-95.333 -75.333 -147.333 -128 -156 -158c6.66699 0 16.667 -0.666992 30 -2c242.667 66 392.334 99 449.001 99c47.333 0 92 -9 134 -27c59.333 -24.667 89 -61.334 89 -110.001c0 -5.33301 -5 -18 -15 -38c-10.667 0.666992 -21.167 4.5 -31.5 11.5
s-15.166 13.167 -14.499 18.5c1.33301 48 -42.334 72 -131.001 72c-66.667 0 -212 -37.333 -436 -112c-44 -14.667 -70 -22 -78 -22c-32.667 0 -47 18.667 -43 56v5z" />
    <glyph glyph-name="braceleft" unicode="{" 
 />
    <glyph glyph-name="bar" unicode="|" 
 />
    <glyph glyph-name="braceright" unicode="}" 
 />
    <glyph glyph-name="asciitilde" unicode="~" horiz-adv-x="628" 
d="M366 716l-62.002 39c-21.333 13.333 -40.333 20 -57 20c-21.333 0 -43.666 -10 -66.999 -30l-26 -28c-12.667 -12 -23 -18 -31 -18c-14 0 -21 7.66699 -21 23c0 4 9.33301 19.333 28 46c18 24.667 30 40.334 36 47.001c14 15.333 29.667 26.666 47 33.999
c12.667 5.33301 25.334 8 38.001 8v0c24.667 0 58.667 -16 102 -48c38.667 -28 68 -38.333 88 -31c8 3.33301 22.667 13.666 44 30.999c19.333 16 33.333 24 42 24v0c9.33301 0 16 -4.66699 20 -14c4.66699 -9.33301 3.66699 -18.666 -3 -27.999
c-42 -59.333 -85 -89 -129 -89c-16.667 0 -33 4.66699 -49 14z" />
    <glyph glyph-name="nonbreakingspace" unicode="&#xa0;" 
 />
    <glyph glyph-name="exclamdown" unicode="&#xa1;" horiz-adv-x="418" 
d="M264 305c-44.667 0 -67 17.333 -67 52c0 11.333 8.66699 22.5 26 33.5s32 16.5 44 16.5c40.667 0 61 -15.333 61 -46c0 -37.333 -21.333 -56 -64 -56zM177 -147c0 -243.333 30 -447 90 -611c0.666992 -3.33301 1 -6.66602 1 -9.99902
c0 -12.667 -5.33301 -24.334 -16 -35.001s-22 -16 -34 -16c-36.667 0 -69.334 84.333 -98.001 253c-24.667 147.333 -37 286 -37 416c0 26.667 0.666992 48.667 2 66c4 44 18 91.333 42 142c29.333 61.333 64 100.333 104 117c10.667 4.66699 20 7 28 7v0
c12.667 0 19.334 -5 20.001 -15c1.33301 -10 -3.66699 -20.667 -15 -32c-58 -41.333 -87 -135.333 -87 -282z" />
    <glyph glyph-name="cent" unicode="&#xa2;" horiz-adv-x="683" 
d="M177 394c-28.667 -3.33301 -42.666 -5.00391 -41.999 -5.00391c-69.333 0 -121.666 25.333 -156.999 76c-29.333 41.333 -44 93 -44 155c0 72.667 29.667 166.334 89 281.001c65.333 127.333 139.666 218.333 222.999 273c15.333 63.333 32 117.333 50 162
c6 14.667 18.667 22 38 22v0c14 0 25.667 -4.33301 35 -13s11.666 -19.667 6.99902 -33c-12 -28 -23.333 -60 -34 -96c15.333 3.33301 31 5 47 5c19.333 0 47.333 -8.33301 84 -25c48.667 -21.333 74 -47 76 -77c1.33301 -13.333 -4.33398 -24.666 -17.001 -33.999
c-10 -7.33301 -19.667 -11 -29 -11c-15.333 0 -34.333 12 -57 36s-45 36 -67 36c-19.333 0 -39 -4.66699 -59 -14c-50 -202 -78.333 -413 -85 -633c100.667 37.333 186 110.333 256 219c4.66699 6.66699 10 10 16 10c8.66699 0 16.667 -5.16699 24 -15.5
s10 -19.166 8 -26.499c-6 -21.333 -43.667 -66 -113 -134c-63.333 -62 -101.666 -96.667 -114.999 -104c-16.667 -10 -42.334 -24 -77.001 -42c0.666992 -67.333 4.66699 -123.666 12 -168.999c4 -24.667 -3.33301 -37 -22 -37c-16.667 0 -27 11.333 -31 34
c-7.33301 44.667 -12.666 98 -15.999 160zM14.001 605.996c0 -84.667 35.333 -127.001 106 -127.001c19.333 0 37.666 1.33301 54.999 4c-1.33301 194.667 14.334 385.334 47.001 572.001c-55.333 -61.333 -105 -143.333 -149 -246c-39.333 -91.333 -59 -159 -59 -203z" />
    <glyph glyph-name="sterling" unicode="&#xa3;" 
 />
    <glyph glyph-name="currency" unicode="&#xa4;" 
 />
    <glyph glyph-name="yen" unicode="&#xa5;" 
 />
    <glyph glyph-name="brokenbar" unicode="&#xa6;" 
 />
    <glyph glyph-name="section" unicode="&#xa7;" 
 />
    <glyph glyph-name="dieresis" unicode="&#xa8;" 
 />
    <glyph glyph-name="copyright" unicode="&#xa9;" 
 />
    <glyph glyph-name="ordfeminine" unicode="&#xaa;" 
 />
    <glyph glyph-name="guillemotleft" unicode="&#xab;" 
 />
    <glyph glyph-name="logicalnot" unicode="&#xac;" horiz-adv-x="372" 
d="M145 86c0 -36.667 3.00098 -72.666 9.00098 -107.999c4.66699 -26.667 23 -52.667 55 -78c8.66699 -6.66699 13 -14 13 -22v0c0 -13.333 -8.66699 -23.333 -26 -30s-33.333 -4.33398 -48 6.99902c-50.667 38 -76 115.667 -76 233c0 78 10.667 165.333 32 262
c15.333 61.333 36.666 158.333 63.999 291c4 22 18.333 33 43 33c30.667 0 43.667 -13.333 39 -40c-6 -36 -27.667 -130.333 -65 -283c-26.667 -106.667 -40 -195 -40 -265z" />
    <glyph glyph-name="minus" unicode="&#xad;" 
 />
    <glyph glyph-name="registered" unicode="&#xae;" 
 />
    <glyph glyph-name="macron" unicode="&#xaf;" 
 />
    <glyph glyph-name="degree" unicode="&#xb0;" 
 />
    <glyph glyph-name="plusminus" unicode="&#xb1;" 
 />
    <glyph glyph-name="twosuperior" unicode="&#xb2;" 
 />
    <glyph glyph-name="threesuperior" unicode="&#xb3;" 
 />
    <glyph glyph-name="acute" unicode="&#xb4;" 
 />
    <glyph glyph-name="mu" unicode="&#xb5;" 
 />
    <glyph glyph-name="paragraph" unicode="&#xb6;" 
 />
    <glyph glyph-name="cedilla" unicode="&#xb8;" 
 />
    <glyph glyph-name="onesuperior" unicode="&#xb9;" 
 />
    <glyph glyph-name="ordmasculine" unicode="&#xba;" 
 />
    <glyph glyph-name="guillemotright" unicode="&#xbb;" 
 />
    <glyph glyph-name="onequarter" unicode="&#xbc;" 
 />
    <glyph glyph-name="onehalf" unicode="&#xbd;" 
 />
    <glyph glyph-name="threequarters" unicode="&#xbe;" 
 />
    <glyph glyph-name="questiondown" unicode="&#xbf;" horiz-adv-x="741" 
d="M434 295c-44.667 0 -67 17.333 -67 52c0 11.333 8.66699 22.5 26 33.5s32 16.5 44 16.5c40.667 0 61 -15.333 61 -46c0 -37.333 -21.333 -56 -64 -56zM368 -773c-72.667 -20 -145.001 -29.999 -217.001 -29.999c-185.333 0 -278 69 -278 207
c0 71.333 49.667 150.333 149 237l276 207c99.333 74 149 131.667 149 173c0 22 -10.333 34.333 -31 37c-36 5.33301 -54 16.333 -54 33c0 26.667 16 40 48 40c32.667 0 59.334 -12 80.001 -36s31 -51.333 31 -82c0 -55.333 -49.333 -124.333 -148 -207l-275 -212
c-98.667 -80.667 -148 -145.334 -148 -194.001c0 -89.333 68 -134 204 -134c72 0 154 22.333 246 67c61.333 30 130.333 71.667 207 125c64 44.667 97.667 67 101 67c29.333 0 44 -16.333 44 -49c0 -34 -56.333 -83 -169 -147c-95.333 -54.667 -167 -88.667 -215 -102z" />
    <glyph glyph-name="Agrave" unicode="&#xc0;" 
 />
    <glyph glyph-name="Aacute" unicode="&#xc1;" 
 />
    <glyph glyph-name="Acircumflex" unicode="&#xc2;" 
 />
    <glyph glyph-name="Atilde" unicode="&#xc3;" 
 />
    <glyph glyph-name="Adieresis" unicode="&#xc4;" 
 />
    <glyph glyph-name="Aring" unicode="&#xc5;" 
 />
    <glyph glyph-name="AE" unicode="&#xc6;" 
 />
    <glyph glyph-name="Ccedilla" unicode="&#xc7;" 
 />
    <glyph glyph-name="Egrave" unicode="&#xc8;" 
 />
    <glyph glyph-name="Eacute" unicode="&#xc9;" 
 />
    <glyph glyph-name="Ecircumflex" unicode="&#xca;" 
 />
    <glyph glyph-name="Edieresis" unicode="&#xcb;" 
 />
    <glyph glyph-name="Igrave" unicode="&#xcc;" 
 />
    <glyph glyph-name="Iacute" unicode="&#xcd;" 
 />
    <glyph glyph-name="Icircumflex" unicode="&#xce;" 
 />
    <glyph glyph-name="Idieresis" unicode="&#xcf;" 
 />
    <glyph glyph-name="Eth" unicode="&#xd0;" 
 />
    <glyph glyph-name="Ntilde" unicode="&#xd1;" 
 />
    <glyph glyph-name="Ograve" unicode="&#xd2;" 
 />
    <glyph glyph-name="Oacute" unicode="&#xd3;" 
 />
    <glyph glyph-name="Ocircumflex" unicode="&#xd4;" 
 />
    <glyph glyph-name="Otilde" unicode="&#xd5;" 
 />
    <glyph glyph-name="Odieresis" unicode="&#xd6;" 
 />
    <glyph glyph-name="multiply" unicode="&#xd7;" 
 />
    <glyph glyph-name="Oslash" unicode="&#xd8;" 
 />
    <glyph glyph-name="Ugrave" unicode="&#xd9;" 
 />
    <glyph glyph-name="Uacute" unicode="&#xda;" 
 />
    <glyph glyph-name="Ucircumflex" unicode="&#xdb;" 
 />
    <glyph glyph-name="Udieresis" unicode="&#xdc;" 
 />
    <glyph glyph-name="Yacute" unicode="&#xdd;" 
 />
    <glyph glyph-name="Thorn" unicode="&#xde;" 
 />
    <glyph glyph-name="germandbls" unicode="&#xdf;" 
 />
    <glyph glyph-name="agrave" unicode="&#xe0;" 
 />
    <glyph glyph-name="aacute" unicode="&#xe1;" horiz-adv-x="734" 
d="M707 908c-33.333 -15.333 -91.334 -38.999 -174.001 -70.999c-6.66699 -2 -13 -3 -19 -3c-20 0 -30 8.33301 -30 25c0 12.667 8.66699 22.667 26 30c111.333 48 192 103.333 242 166c4.66699 5.33301 13.334 8 26.001 8v0c20.667 0 38.667 -6 54 -18
c17.333 -14.667 20.333 -31.334 9 -50.001c-16 -24.667 -60.667 -53.667 -134 -87zM597.999 -10.999c-63.333 22.667 -95.002 96.6689 -95.002 222.002c0 13.333 0.333008 27 1 41c-66 -88 -138.667 -168.333 -218 -241c-102 -93.333 -182.333 -140 -241 -140
c-19.333 0 -36 5.33301 -50 16c-24 18 -36 47.333 -36 88v0c0 83.333 44.667 195.666 134 336.999c86.667 135.333 181.334 246.666 284.001 333.999c112 95.333 195 125.333 249 90c25.333 -16 38 -49.667 38 -101c0 -61.333 -21 -94 -63 -98
c-29.333 -2 -44 8.33301 -44 31c0 3.33301 0.666992 6.33301 2 9c12.667 31.333 18.667 59.333 18 84c0 14.667 -1.66699 21.667 -5 21c-66 -12 -172.833 -113.833 -320.5 -305.5s-221.5 -323.834 -221.5 -396.501c0 -25.333 11.333 -38 34 -38c58 0 149 75 273 225
c86 104 133 161.667 141 173c38 52.667 59.667 101 65 145c3.33301 30 19.333 45 48 45v0c40.667 0 57 -19.667 49 -59c-32.667 -171.333 -49 -275.666 -49 -312.999c0 -68 15 -106 45 -114c10.667 -2.66699 22 -0.666992 34 6c10 6 15.667 12 17 18
c6.66699 28.667 23.334 43 50.001 43c16 0 24 -8.66699 24 -26c0 -7.33301 -2 -16.333 -6 -27c-20.667 -52 -58 -78 -112 -78c-14.667 0 -29.667 3 -45 9z" />
    <glyph glyph-name="acircumflex" unicode="&#xe2;" 
 />
    <glyph glyph-name="atilde" unicode="&#xe3;" 
 />
    <glyph glyph-name="adieresis" unicode="&#xe4;" 
 />
    <glyph glyph-name="aring" unicode="&#xe5;" 
 />
    <glyph glyph-name="ae" unicode="&#xe6;" 
 />
    <glyph glyph-name="ccedilla" unicode="&#xe7;" 
 />
    <glyph glyph-name="egrave" unicode="&#xe8;" 
 />
    <glyph glyph-name="eacute" unicode="&#xe9;" horiz-adv-x="626" 
d="M532 847c-34 -15.333 -92 -38.999 -174 -70.999c-6.66699 -2 -13 -3 -19 -3c-20 0 -30 8.33301 -30 25c0 13.333 8.33301 23.333 25 30c112 48 193 103.333 243 166c4.66699 5.33301 13 8 25 8v0c21.333 0 39.666 -6 54.999 -18c17.333 -14.667 20 -31.334 8 -50.001
c-15.333 -24.667 -59.666 -53.667 -132.999 -87zM102 291.001c-12 -10.667 -24.8311 -42.999 -38.498 -96.999s-20.5 -101 -20.5 -141c0 -52 34.333 -78 103 -78c66 0 143.333 38.333 232 115c86 74.667 145.667 151.667 179 231h32c12.667 -12 17 -23.333 13 -34
c-38.667 -112 -103.334 -205 -194.001 -279c-86 -71.333 -172.333 -107 -259 -107c-64 0 -112.333 22 -145 66c-32 42 -46 98.667 -42 170c5.33301 100 58.666 224 159.999 372c108.667 158.667 207.667 238 297 238c30 0 53 -14 69 -42c12 -20.667 18 -42.334 18 -65.001
c0 -65.333 -27.667 -140.333 -83 -225c-65.333 -102 -140.333 -153 -225 -153c-40 0 -70.667 8.66699 -92 26zM407.002 677.002c-25.333 -6 -48.333 -21.3301 -69 -45.9971c-138.667 -162.667 -208 -257.334 -208 -284.001c0 -7.33301 15.333 -12 46 -14
c52 -2.66699 108.667 34.666 170 111.999c60 75.333 90 142.666 90 201.999c0 25.333 -9.66699 35.333 -29 30z" />
    <glyph glyph-name="ecircumflex" unicode="&#xea;" 
 />
    <glyph glyph-name="edieresis" unicode="&#xeb;" 
 />
    <glyph glyph-name="igrave" unicode="&#xec;" 
 />
    <glyph glyph-name="iacute" unicode="&#xed;" horiz-adv-x="315" 
d="M329 826c-33.333 -15.333 -91.334 -38.999 -174.001 -70.999c-6.66699 -2 -13 -3 -19 -3c-20 0 -30 8.33301 -30 25c0 12.667 8.66699 22.667 26 30c111.333 48 192 103.333 242 166c4.66699 5.33301 13.334 8 26.001 8v0c20.667 0 38.667 -6 54 -18
c17.333 -14.667 20.333 -31.334 9 -50.001c-16 -24.667 -60.667 -53.667 -134 -87zM182.999 -118.999c-63.333 0 -111.667 49.334 -145 148.001c-23.333 68 -35 134.333 -35 199c0 59.333 7.33301 132.333 22 219c22 125.333 52 188 90 188c30 0 45 -17.333 45 -52
c0 -16 -9.33301 -46 -28 -90c-19.333 -48 -33.333 -129.667 -42 -245c1.33301 -54.667 1.33301 -87.334 0 -98.001l26 -124c17.333 -54.667 43 -82 77 -82c8 0 13.333 1.33301 16 4c9.33301 12.667 22.333 23 39 31c14 -12 21 -23.333 21 -34c0 -18 -11.667 -33.667 -35 -47
c-18.667 -11.333 -35.667 -17 -51 -17z" />
    <glyph glyph-name="icircumflex" unicode="&#xee;" 
 />
    <glyph glyph-name="idieresis" unicode="&#xef;" 
 />
    <glyph glyph-name="eth" unicode="&#xf0;" 
 />
    <glyph glyph-name="ntilde" unicode="&#xf1;" horiz-adv-x="716" 
d="M366 716l-62.002 39c-21.333 13.333 -40.333 20 -57 20c-21.333 0 -43.666 -10 -66.999 -30l-26 -28c-12.667 -12 -23 -18 -31 -18c-14 0 -21 7.66699 -21 23c0 4 9.33301 19.333 28 46c18 24.667 30 40.334 36 47.001c14 15.333 29.667 26.666 47 33.999
c12.667 5.33301 25.334 8 38.001 8v0c24.667 0 58.667 -16 102 -48c38.667 -28 68 -38.333 88 -31c8 3.33301 22.667 13.666 44 30.999c19.333 16 33.333 24 42 24v0c9.33301 0 16 -4.66699 20 -14c4.66699 -9.33301 3.66699 -18.666 -3 -27.999
c-42 -59.333 -85 -89 -129 -89c-16.667 0 -33 4.66699 -49 14zM80.998 238l16.9971 30.001c143.333 242.667 245 364 305 364c56.667 0 94.334 -41.667 113.001 -125l18 -190c10.667 -104 17.334 -163 20.001 -177c15.333 -93.333 37.666 -140 66.999 -140
c12.667 0 30 11.667 52 35l37 -12c1.33301 -26 -10 -47.333 -34 -64c-18 -12.667 -34.667 -19 -50 -19c-96 0 -155.333 108.333 -178 325c-4 51.333 -11 121.666 -21 210.999c-7.33301 54.667 -16.666 82 -27.999 82c-22.667 0 -78.5 -70.167 -167.5 -210.5
s-151.833 -269.833 -188.5 -388.5c-9.33301 -32 -25.666 -48 -48.999 -48c-30 0 -43.667 15 -41 45c0.666992 10.667 22 152 64 424c2 34 5.33301 81 10 141c5.33301 54.667 25.333 82 60 82c20 0 33.667 -7.33301 41 -22l12 -45z" />
    <glyph glyph-name="ograve" unicode="&#xf2;" 
 />
    <glyph glyph-name="oacute" unicode="&#xf3;" horiz-adv-x="628" 
d="M523 850c-33.333 -15.333 -91.334 -38.668 -174.001 -70.001c-6.66699 -2.66699 -12.667 -4 -18 -4c-20 0 -30 8.33301 -30 25c0 13.333 8.33301 23.333 25 30c112 48.667 192.667 104 242 166c4.66699 6 13.334 9 26.001 9v0c20.667 0 38.667 -6.33301 54 -19
c17.333 -14.667 20.333 -31 9 -49c-15.333 -25.333 -60 -54.666 -134 -87.999zM171.999 -98.002c-58 -4.66699 -104.333 14.999 -139 58.999c-32 40 -48 90.333 -48 151c0 102.667 24.5 213.834 73.5 333.501s94.833 179.5 137.5 179.5c38.667 0 58 -16.333 58 -49
c0 -9.33301 -11 -28.666 -33 -57.999c-105.333 -138.667 -158 -268.334 -158 -389.001c0 -104 26 -156 78 -156c78.667 0 155.667 71.667 231 215c66 124 99 223.667 99 299c0 108.667 -27 163 -81 163c-41.333 0 -85.333 -22 -132 -66l-15 9
c-9.33301 5.33301 -14 13.333 -14 24c0 22.667 24 45.667 72 69c40 19.333 69.667 29 89 29c108 0 164 -83.333 168 -250c2 -80.667 -33.667 -187 -107 -319c-85.333 -154 -178.333 -235.333 -279 -244z" />
    <glyph glyph-name="ocircumflex" unicode="&#xf4;" 
 />
    <glyph glyph-name="otilde" unicode="&#xf5;" horiz-adv-x="628" 
d="M432 764l-62.5 39.999c-21 13.333 -39.833 20 -56.5 20c-21.333 0 -43.666 -10.333 -66.999 -31l-26 -27c-12.667 -12.667 -23.334 -19 -32.001 -19c-14 0 -21 8 -21 24c0 4 9.66699 19.333 29 46c17.333 24.667 29 40 35 46c14 16 30 27.667 48 35
c12 5.33301 24.333 8 37 8v0c25.333 0 59.666 -16 102.999 -48c38.667 -28.667 67.667 -39 87 -31c8 2.66699 23 13 45 31c18.667 15.333 32.334 23 41.001 23v0c9.33301 0 16 -4.66699 20 -14c4.66699 -9.33301 3.66699 -18.666 -3 -27.999c-42 -58.667 -85 -88 -129 -88
c-16.667 0 -32.667 4.33301 -48 13zM172 -98.001c-58 -4.66699 -104.333 14.999 -139 58.999c-32 40 -48 90.333 -48 151c0 102.667 24.5 213.834 73.5 333.501s94.833 179.5 137.5 179.5c38.667 0 58 -16.333 58 -49c0 -9.33301 -11 -28.666 -33 -57.999
c-105.333 -138.667 -158 -268.334 -158 -389.001c0 -104 26 -156 78 -156c78.667 0 155.667 71.667 231 215c66 124 99 223.667 99 299c0 108.667 -27 163 -81 163c-41.333 0 -85.333 -22 -132 -66l-15 9c-9.33301 5.33301 -14 13.333 -14 24c0 22.667 24 45.667 72 69
c40 19.333 69.667 29 89 29c108 0 164 -83.333 168 -250c2 -80.667 -33.667 -187 -107 -319c-85.333 -154 -178.333 -235.333 -279 -244z" />
    <glyph glyph-name="odieresis" unicode="&#xf6;" 
 />
    <glyph glyph-name="divide" unicode="&#xf7;" 
 />
    <glyph glyph-name="oslash" unicode="&#xf8;" horiz-adv-x="554" 
 />
    <glyph glyph-name="ugrave" unicode="&#xf9;" 
 />
    <glyph glyph-name="uacute" unicode="&#xfa;" horiz-adv-x="691" 
d="M523 850c-33.333 -15.333 -91.334 -38.668 -174.001 -70.001c-6.66699 -2.66699 -12.667 -4 -18 -4c-20 0 -30 8.33301 -30 25c0 13.333 8.33301 23.333 25 30c112 48.667 192.667 104 242 166c4.66699 6 13.334 9 26.001 9v0c20.667 0 38.667 -6.33301 54 -19
c17.333 -14.667 20.333 -31 9 -49c-15.333 -25.333 -60 -54.666 -134 -87.999zM426.999 344.998c-71.333 -149.333 -117.667 -240.667 -139 -274c-71.333 -110 -146.666 -165 -225.999 -165c-62.667 0 -94 62.667 -94 188c0 36 19 133 57 291c44 180 81 270.667 111 272
c14.667 0 28.834 -4.5 42.501 -13.5s20.5 -19.167 20.5 -30.5c-0.666992 -5.33301 -3 -13.666 -7 -24.999l-18 -46c-84.667 -228 -127 -388 -127 -480c0 -56 9.66699 -84 29 -84c24 0 61.333 31 112 93c54.667 67.333 108.667 153.333 162 258
c60 117.333 90.333 206.666 91 267.999c0.666992 21.333 7.16699 41 19.5 59s27.166 27 44.499 27c33.333 0 50 -16.667 50 -50c0 -5.33301 -5.83301 -38 -17.5 -98s-17.5 -117 -17.5 -171c0 -209.333 32.333 -314 97 -314c15.333 0 32 9 50 27c8 8 19.667 17 35 27
c14.667 -12.667 22 -23 22 -31c0 -24 -16.333 -45.333 -49 -64c-26.667 -15.333 -48.334 -23 -65.001 -23c-104 0 -164.667 113.667 -182 341z" />
    <glyph glyph-name="ucircumflex" unicode="&#xfb;" 
 />
    <glyph glyph-name="udieresis" unicode="&#xfc;" 
 />
    <glyph glyph-name="yacute" unicode="&#xfd;" 
 />
    <glyph glyph-name="thorn" unicode="&#xfe;" 
 />
    <glyph glyph-name="ydieresis" unicode="&#xff;" 
 />
    <glyph glyph-name="dotlessi" unicode="&#x131;" 
 />
    <glyph glyph-name="Lslash" unicode="&#x141;" 
 />
    <glyph glyph-name="lslash" unicode="&#x142;" 
 />
    <glyph glyph-name="OE" unicode="&#x152;" 
 />
    <glyph glyph-name="oe" unicode="&#x153;" 
 />
    <glyph glyph-name="Scaron" unicode="&#x160;" 
 />
    <glyph glyph-name="scaron" unicode="&#x161;" 
 />
    <glyph glyph-name="Ydieresis" unicode="&#x178;" 
 />
    <glyph glyph-name="Zcaron" unicode="&#x17d;" 
 />
    <glyph glyph-name="zcaron" unicode="&#x17e;" 
 />
    <glyph glyph-name="florin" unicode="&#x192;" 
 />
    <glyph glyph-name="circumflex" unicode="&#x2c6;" 
 />
    <glyph glyph-name="caron" unicode="&#x2c7;" 
 />
    <glyph glyph-name="breve" unicode="&#x2d8;" 
 />
    <glyph glyph-name="dotaccent" unicode="&#x2d9;" horiz-adv-x="611" 
 />
    <glyph glyph-name="ring" unicode="&#x2da;" 
 />
    <glyph glyph-name="ogonek" unicode="&#x2db;" 
 />
    <glyph glyph-name="tilde" unicode="&#x2dc;" 
 />
    <glyph glyph-name="hungarumlaut" unicode="&#x2dd;" 
 />
    <glyph glyph-name="summation" unicode="&#x3a3;" 
 />
    <glyph glyph-name="Omega" unicode="&#x3a9;" 
 />
    <glyph glyph-name="pi" unicode="&#x3c0;" 
 />
    <glyph glyph-name="endash" unicode="&#x2013;" horiz-adv-x="823" 
d="M727 374c-21.333 6 -46.332 17.333 -74.999 34c-20.667 12 -38.334 19.333 -53.001 22c-26 4 -56.667 6 -92 6c-150.667 0 -295 -21.333 -433 -64c-14.667 -4 -24.667 -5.66699 -30 -5c-31.333 4.66699 -47 18.667 -47 42c0 3.33301 0.333008 7 1 11
c4 20.667 59 41 165 61c80 14.667 146 23.667 198 27c93.333 6 171.333 4.33301 234 -5c34.667 -5.33301 68.667 -16 102 -32c46.667 -22.667 67 -48 61 -76z" />
    <glyph glyph-name="emdash" unicode="&#x2014;" horiz-adv-x="1130" 
d="M1019 378c-24.667 5.33301 -55.3301 16.333 -91.9971 33c-28.667 12.667 -53.334 20 -74.001 22c-32.667 4 -74.667 6 -126 6c-104.667 0 -227.334 -7 -368.001 -21c-136.667 -14 -241.334 -29.333 -314.001 -46c-18 -4 -29.667 -5.66699 -35 -5
c-39.333 4.66699 -59 19 -59 43c0 4 0.666992 7.66699 2 11c5.33301 20 77.333 40 216 60c104 14.667 190.333 23.667 259 27c189.333 9.33301 328 8.66602 416 -2.00098c41.333 -4.66699 83.333 -14.667 126 -30c58.667 -21.333 88 -44.666 88 -69.999
c0 -2.66699 -0.666992 -5.66699 -2 -9z" />
    <glyph glyph-name="quoteleft" unicode="&#x2018;" horiz-adv-x="217" 
d="M114 821c2 -10.667 -5.00195 -22.001 -21.002 -34.001s-32 -18 -48 -18c-25.333 0 -38 18.333 -38 55c0 39.333 12.333 85 37 137c26 54.667 56.333 95.334 91 122.001c8.66699 6.66699 17.334 10 26.001 10v0c13.333 0 21.333 -6.33301 24 -19s-3.66602 -25 -18.999 -37
c-36.667 -28.667 -55 -85 -55 -169c0 -16 1 -31.667 3 -47z" />
    <glyph glyph-name="quoteright" unicode="&#x2019;" horiz-adv-x="249" 
d="M62 770c-8.66699 -6.66699 -17.001 -10 -25.001 -10c-16.667 0 -25 8 -25 24c0 11.333 6.33301 22 19 32c37.333 28.667 56 85 56 169c0 16.667 -1.33301 32.667 -4 48c-1.33301 10.667 5.83398 22 21.501 34s31.5 18 47.5 18c25.333 0 38 -18.333 38 -55
c0 -40 -12.333 -85.667 -37 -137c-26 -55.333 -56.333 -96.333 -91 -123z" />
    <glyph glyph-name="quotesinglbase" unicode="&#x201a;" 
 />
    <glyph glyph-name="quotedblleft" unicode="&#x201c;" horiz-adv-x="259" 
d="M236 806c1.33301 -10.667 -5.83301 -22.001 -21.5 -34.001s-31.5 -18 -47.5 -18c-25.333 0 -38 18.333 -38 55c0 39.333 12.333 85 37 137c26 55.333 56.333 96.333 91 123c8.66699 6 17 9 25 9v0c13.333 0 21.333 -6 24 -18
c3.33301 -13.333 -2.66699 -25.666 -18 -36.999c-37.333 -29.333 -56 -86 -56 -170c0 -16 1.33301 -31.667 4 -47zM103.001 805.999c1.33301 -10.667 -5.99902 -22.001 -21.999 -34.001s-31.667 -18 -47 -18c-25.333 0 -38 18.333 -38 55c0 39.333 12.333 85 37 137
c25.333 55.333 55.666 96.333 90.999 123c8 6 16.333 9 25 9v0c13.333 0 21.333 -6 24 -18c3.33301 -13.333 -2.66699 -25.666 -18 -36.999c-37.333 -29.333 -56 -86 -56 -170c0 -16 1.33301 -31.667 4 -47z" />
    <glyph glyph-name="quotedblright" unicode="&#x201d;" horiz-adv-x="301" 
d="M139 740c-8 -6 -16.334 -8.99902 -25.001 -8.99902c-16.667 0 -25 8 -25 24c0 11.333 6.33301 21.666 19 30.999c37.333 29.333 56 86 56 170c0 16 -1.33301 31.667 -4 47c-1.33301 10.667 6 22 22 34s31.667 18 47 18c25.333 0 38 -18.333 38 -55
c0 -39.333 -12.333 -85 -37 -137c-25.333 -55.333 -55.666 -96.333 -90.999 -123zM5.99902 740.001c-8.66699 -6 -17.001 -8.99902 -25.001 -8.99902c-16.667 0 -25 8 -25 24c0 11.333 6.33301 21.666 19 30.999c37.333 29.333 56 86 56 170c0 16 -1.33301 31.667 -4 47
c-1.33301 10.667 5.83398 22 21.501 34s31.5 18 47.5 18c25.333 0 38 -18.333 38 -55c0 -39.333 -12.333 -85 -37 -137c-26 -55.333 -56.333 -96.333 -91 -123z" />
    <glyph glyph-name="quotedblbase" unicode="&#x201e;" 
 />
    <glyph glyph-name="dagger" unicode="&#x2020;" horiz-adv-x="589" 
 />
    <glyph glyph-name="daggerdbl" unicode="&#x2021;" 
 />
    <glyph glyph-name="bullet" unicode="&#x2022;" 
 />
    <glyph glyph-name="ellipsis" unicode="&#x2026;" horiz-adv-x="1096" 
d="M954 -22c-17.333 0 -34.667 6.33203 -52 18.999s-26 28.334 -26 47.001c0 36.667 18.667 55 56 55c56 0 84 -15.667 84 -47c0 -49.333 -20.667 -74 -62 -74zM551.999 -22.001c-17.333 0 -34 6 -50 18c-18.667 13.333 -28 29.333 -28 48c0 36.667 19 55 57 55
c55.333 0 83 -15.667 83 -47c0 -49.333 -20.667 -74 -62 -74zM124.999 -22.001c-17.333 0 -34.667 6.33203 -52 18.999s-26 28.334 -26 47.001c0 36.667 18.667 55 56 55c56 0 84 -15.667 84 -47c0 -49.333 -20.667 -74 -62 -74z" />
    <glyph glyph-name="perthousand" unicode="&#x2030;" 
 />
    <glyph glyph-name="guilsinglleft" unicode="&#x2039;" 
 />
    <glyph glyph-name="guilsinglright" unicode="&#x203a;" 
 />
    <glyph glyph-name="trademark" unicode="&#x2122;" 
 />
    <glyph glyph-name="partialdiff" unicode="&#x2202;" horiz-adv-x="739" 
 />
    <glyph glyph-name="Delta" unicode="&#x2206;" 
 />
    <glyph glyph-name="product" unicode="&#x220f;" 
 />
    <glyph glyph-name="fraction" unicode="&#x2215;" 
 />
    <glyph glyph-name="periodcentered" unicode="&#x2219;" 
 />
    <glyph glyph-name="radical" unicode="&#x221a;" 
 />
    <glyph glyph-name="infinity" unicode="&#x221e;" 
 />
    <glyph glyph-name="integral" unicode="&#x222b;" 
 />
    <glyph glyph-name="approxequal" unicode="&#x2248;" 
 />
    <glyph glyph-name="notequal" unicode="&#x2260;" 
 />
    <glyph glyph-name="lessequal" unicode="&#x2264;" 
 />
    <glyph glyph-name="greaterequal" unicode="&#x2265;" 
 />
    <glyph glyph-name="lozenge" unicode="&#x25ca;" 
 />
    <glyph glyph-name="apple" unicode="&#xf000;" 
 />
    <glyph glyph-name="fi" unicode="&#xf001;" 
 />
    <glyph glyph-name="fl" unicode="&#xf002;" 
 />
    <glyph glyph-name=".null" horiz-adv-x="0" 
 />
    <glyph glyph-name="nonmarkingreturn" horiz-adv-x="544" 
 />
    <glyph glyph-name="LF" 
 />
    <glyph glyph-name="DLE" 
 />
    <glyph glyph-name="DC1" 
 />
    <glyph glyph-name="DC2" 
 />
    <glyph glyph-name="DC3" 
 />
    <glyph glyph-name="DC4" 
 />
    <glyph glyph-name="RS" 
 />
    <glyph glyph-name="US" 
 />
    <glyph glyph-name="DEL" 
 />
    </font>
</defs>
</svg>
