<?xml version="1.0" standalone="no"?>
<!DOCTYPE svg PUBLIC "-//W3C//DTD SVG 1.1//EN" "http://www.w3.org/Graphics/SVG/1.1/DTD/svg11.dtd" >
<svg xmlns="http://www.w3.org/2000/svg">
<metadata>
This is a custom SVG webfont generated by Font Squirrel.
Copyright   :  2006 Microsoft Corporation All Rights Reserved
Designer    : Vincent Connare
Foundry     : Microsoft Corporation
Foundry URL : httpwwwmicrosoftcom
</metadata>
<defs>
<font id="TrebuchetMSBold" horiz-adv-x="1200" >
<font-face units-per-em="2048" ascent="1638" descent="-410" />
<missing-glyph horiz-adv-x="617" />
<glyph unicode=" "  horiz-adv-x="617" />
<glyph unicode="&#x09;" horiz-adv-x="617" />
<glyph unicode="&#xa0;" horiz-adv-x="617" />
<glyph unicode="!" horiz-adv-x="752" d="M218 144q0 68 48 116t116 48t115.5 -48t47.5 -116t-47.5 -116t-115.5 -48t-116 48t-48 116zM244 1081v410h260v-409q0 -200 -78 -700h-104q-78 500 -78 699z" />
<glyph unicode="&#x22;" horiz-adv-x="751" d="M70 1467h248l-31 -431h-189zM450 1467h248l-31 -431h-189z" />
<glyph unicode="#" d="M65 409v181h189l83 320h-157v181h205l108 396h193l-105 -396h229l108 396h193l-104 -396h167v-181h-215l-84 -320h154v-181h-202l-120 -429h-195l118 429h-230l-118 -429h-195l118 429h-140zM448 590h235l86 320h-237z" />
<glyph unicode="$" d="M155 81l96 233q154 -108 303 -108q229 0 229 158q0 79 -58.5 148.5t-222 151.5t-222.5 136t-90.5 129t-31.5 167q0 136 85.5 240t229.5 139v181h229l-1 -171q184 -18 274 -90l-79 -224q-137 98 -289 98q-90 0 -139.5 -48.5t-49.5 -122.5q0 -126 279 -262 q147 -72 212 -132.5t99 -141t34 -179.5q0 -140 -90 -244.5t-250 -143.5v-230h-229v212q-174 12 -318 104z" />
<glyph unicode="%" horiz-adv-x="1401" d="M31 1146q0 152 89 248.5t228 96.5q137 0 218.5 -96t81.5 -268q0 -160 -86 -257t-223 -97q-308 0 -308 373zM139 -20l918 1511h195l-917 -1511h-196zM217 1136q0 -100 32 -154t81 -54q132 0 132 207q0 200 -117 200q-128 0 -128 -199zM731 353q0 152 89 248.5t228 96.5 q137 0 218.5 -96t81.5 -267q0 -160 -86 -257.5t-223 -97.5q-308 0 -308 373zM917 344q0 -100 31.5 -154t81.5 -54q132 0 132 207q0 200 -117 200q-128 0 -128 -199z" />
<glyph unicode="&#x26;" horiz-adv-x="1446" d="M112 464q0 212 149 362q-129 131 -129 280q0 159 124.5 272t330.5 113q216 0 356 -109l-106 -182q-125 89 -219 89q-113 0 -174.5 -54.5t-61.5 -147.5q0 -107 96 -183h332v167l250 93v-263h249v-211h-249v-289q0 -115 31 -157.5t104 -42.5q69 0 138 31v-219 q-104 -33 -224 -33q-96 0 -184 64q-150 -64 -346 -64q-224 0 -345.5 129t-121.5 355zM372 472q0 -271 275 -271q109 0 170 32q-7 37 -7 97v360h-358q-80 -97 -80 -218z" />
<glyph unicode="'" horiz-adv-x="470" d="M120 1467h248l-31 -431h-189z" />
<glyph unicode="(" horiz-adv-x="752" d="M163 558q0 278 140 555.5t345 380.5v-138q-198 -277 -198 -800q0 -622 198 -842v-169q-236 160 -360.5 424t-124.5 589z" />
<glyph unicode=")" horiz-adv-x="752" d="M163 -286q198 220 198 842q0 523 -198 800v138q205 -103 345 -380.5t140 -555.5q0 -325 -124.5 -589t-360.5 -424v169z" />
<glyph unicode="*" horiz-adv-x="885" d="M35 1158l98 205l158 -67l71 -76l-54 155v136l236 -1v-131l-46 -162l100 89l142 62l81 -201l-150 -65l-134 -11l137 -78l86 -111l-193 -144l-84 122l-53 128l-49 -114l-111 -136l-172 154l118 115l110 57l-135 12z" />
<glyph unicode="+" d="M164 535v201h348v343h201v-343h349v-201h-349v-355h-201v355h-348z" />
<glyph unicode="," horiz-adv-x="752" d="M132 -265q183 137 183 215q0 30 -21 59q-95 46 -95 129q0 60 50 99.5t124 39.5q69 0 120.5 -52.5t51.5 -121.5q0 -127 -59.5 -231.5t-268.5 -245.5z" />
<glyph unicode="-" horiz-adv-x="752" d="M109 476v235h529v-235h-529z" />
<glyph unicode="." horiz-adv-x="752" d="M174 131q0 75 52.5 127.5t127.5 52.5t127.5 -52.5t52.5 -127.5t-52.5 -128t-127.5 -53t-127.5 53t-52.5 128z" />
<glyph unicode="/" horiz-adv-x="799" d="M16 0l553 1471h223l-551 -1471h-225z" />
<glyph unicode="0" d="M75 777q0 300 146.5 507t391.5 207q511 0 511 -746q0 -349 -138 -557t-387 -208q-268 0 -396 192t-128 605zM345 759q0 -293 57 -431t189 -138q143 0 203 124.5t60 443.5q0 297 -57.5 410t-188.5 113q-263 0 -263 -522z" />
<glyph unicode="1" d="M271 877v250q287 139 454 344h104v-1471h-260v1056z" />
<glyph unicode="2" d="M139 1247q52 105 163.5 174.5t246.5 69.5q225 0 352 -102.5t127 -284.5q0 -167 -163 -416l-300 -457h550v-231h-960v76l464 683q139 205 139 345q0 166 -199 166q-152 0 -245 -161z" />
<glyph unicode="3" d="M143 123l130 201q116 -123 252 -123q248 0 248 233q0 106 -72 172.5t-194 66.5h-46v214h39q224 0 224 187q0 196 -209 196q-108 0 -210 -102l-122 179q47 58 147 101t200 43q219 0 341.5 -100t122.5 -280q0 -214 -184 -326q233 -112 233 -366q0 -209 -138.5 -324 t-382.5 -115q-222 0 -379 143z" />
<glyph unicode="4" d="M67 383v149l803 939h114v-882h148v-206h-148v-383h-250v383h-667zM358 589h376v440z" />
<glyph unicode="5" d="M165 111l103 214q159 -124 273 -124q252 0 252 310q0 149 -57 217.5t-191 68.5q-121 0 -236 -119l-103 67v726h789v-221h-539v-262q66 30 158 30q216 0 332.5 -125t116.5 -354q0 -559 -521 -559q-216 0 -377 131z" />
<glyph unicode="6" d="M132 619q0 268 197.5 542.5t430.5 332.5l138 -146q-149 -78 -271 -205t-168 -251q104 47 180 47q207 0 332.5 -128.5t125.5 -347.5q0 -216 -128.5 -349.5t-324.5 -133.5q-512 0 -512 639zM402 468q0 -267 227 -267q93 0 148 66.5t55 185.5q0 122 -57.5 193.5t-148.5 71.5 q-224 0 -224 -250z" />
<glyph unicode="7" d="M141 1231v240h1010v-111l-132 -249q-65 -126 -137 -275.5t-140 -304t-120 -289t-85 -242.5h-285q163 502 560 1231h-671z" />
<glyph unicode="8" d="M117 419q0 110 65.5 216t169.5 167q-80 54 -131 143t-51 178q0 169 119.5 268.5t306.5 99.5q201 0 314 -99.5t113 -269.5q0 -89 -63 -188.5t-138 -139.5q95 -44 175.5 -159t80.5 -216q0 -208 -131 -323.5t-356 -115.5q-227 0 -350.5 113t-123.5 326zM377 419 q0 -94 59.5 -156t154.5 -62q100 0 163.5 54.5t63.5 143.5q0 152 -250 298q-191 -108 -191 -278zM430 1125q0 -64 61 -130.5t129 -92.5q56 26 99 96.5t43 127.5q0 66 -45.5 105t-120.5 39q-166 0 -166 -145z" />
<glyph unicode="9" d="M116 1003q0 218 129 353t324 135q512 0 512 -644q0 -268 -197.5 -542.5t-430.5 -332.5l-138 146q304 168 430 439q-67 -30 -171 -30q-206 0 -332 128t-126 348zM381 1013q0 -123 58 -194t148 -71q224 0 224 250q0 272 -227 272q-93 0 -148 -68.5t-55 -188.5z" />
<glyph unicode=":" horiz-adv-x="752" d="M174 131q0 75 52.5 127.5t127.5 52.5t127.5 -52.5t52.5 -127.5t-52.5 -128t-127.5 -53t-127.5 53t-52.5 128zM174 941q0 75 52.5 127.5t127.5 52.5t127.5 -52.5t52.5 -127.5t-52.5 -128t-127.5 -53t-127.5 53t-52.5 128z" />
<glyph unicode=";" horiz-adv-x="752" d="M132 -265q183 137 183 215q0 30 -21 59q-95 46 -95 129q0 60 50 99.5t124 39.5q69 0 120.5 -52.5t51.5 -121.5q0 -127 -59.5 -231.5t-268.5 -245.5zM174 941q0 75 52.5 127.5t127.5 52.5t127.5 -52.5t52.5 -127.5t-52.5 -128t-127.5 -53t-127.5 53t-52.5 128z" />
<glyph unicode="&#x3c;" d="M192 557v161l799 383v-228l-528 -236l528 -239v-228z" />
<glyph unicode="=" d="M179 325v201h898v-201h-898zM179 745v201h898v-201h-898z" />
<glyph unicode="&#x3e;" d="M265 170v228l527 239l-527 236v228l799 -383v-161z" />
<glyph unicode="?" horiz-adv-x="897" d="M103 1390q129 101 339 101q162 0 270.5 -90t108.5 -239q0 -102 -39.5 -172.5t-139 -165.5t-129.5 -158t-30 -138q0 -16 14 -84h-191q-2 7 -18.5 51t-16.5 77q0 63 17.5 121t51.5 108.5t134.5 161.5t100.5 183q0 140 -183 140q-89 0 -186 -89zM248 144q0 68 48 116t116 48 t115.5 -48t47.5 -116t-47.5 -116t-115.5 -48t-116 48t-48 116z" />
<glyph unicode="@" horiz-adv-x="1578" d="M70 582q0 325 203.5 534t531.5 209q337 0 520 -174t183 -493q0 -174 -97 -296.5t-259 -122.5q-148 0 -230 58q-86 -66 -201 -66q-117 0 -193 63.5t-76 172.5q0 252 396 266q-19 94 -84 94q-94 0 -193 -57l-59 136q110 79 238 79q308 0 308 -335v-215q57 -37 92 -37 q156 0 156 263q0 228 -132.5 358.5t-368.5 130.5q-240 0 -386.5 -159.5t-146.5 -408.5q0 -245 144.5 -393t388.5 -148q129 0 208 29.5t158 99.5q1 -1 1 -27q0 -27 -1 -78v-101q-172 -98 -366 -98q-333 0 -534 198t-201 518zM666 472q0 -39 29 -64.5t74 -25.5q48 0 83 31v184 h-21q-165 0 -165 -125z" />
<glyph unicode="A" horiz-adv-x="1297" d="M5 0l584 1485h114l589 -1485h-287l-107 297h-502l-102 -297h-289zM470 496h352l-176 541z" />
<glyph unicode="B" horiz-adv-x="1219" d="M150 0v1464q296 14 415 14q228 0 356.5 -97.5t128.5 -278.5q0 -174 -184 -275q273 -95 273 -392q0 -200 -151 -317.5t-390 -117.5h-448zM410 218q79 -7 128 -7q174 0 252.5 59t78.5 196q0 125 -73 182t-255 57q-38 0 -131 -3v-484zM410 905q60 -4 126 -4q254 0 254 191 q0 169 -231 169q-61 0 -149 -5v-351z" />
<glyph unicode="C" horiz-adv-x="1253" d="M80 728q0 325 188.5 543.5t482.5 218.5q252 0 403 -103l-107 -215q-87 87 -280 87q-183 0 -300 -153.5t-117 -388.5t108.5 -373t289.5 -138q207 0 324 148l121 -210q-159 -169 -466 -169t-477 202t-170 551z" />
<glyph unicode="D" horiz-adv-x="1316" d="M150 0v1464q311 11 391 11q320 0 507.5 -187.5t187.5 -497.5q0 -790 -761 -790h-325zM410 237q63 -6 136 -6q197 0 308.5 143t111.5 400q0 470 -437 470q-42 0 -119 -7v-1000z" />
<glyph unicode="E" horiz-adv-x="1165" d="M150 0v1465h935v-231h-675v-343h484v-221h-484v-439h664v-231h-924z" />
<glyph unicode="F" horiz-adv-x="1195" d="M150 0v1465h965v-231h-705v-343h515v-221h-515v-670h-260z" />
<glyph unicode="G" horiz-adv-x="1375" d="M80 727q0 339 201 551t541 212q241 0 410 -144l-109 -209q-46 41 -142 81.5t-165 40.5q-216 0 -341 -146.5t-125 -392.5q0 -234 122.5 -374t333.5 -140q139 0 229 76v288h-203v222h463v-656q-93 -76 -239.5 -118.5t-291.5 -42.5q-315 0 -499.5 206.5t-184.5 545.5z" />
<glyph unicode="H" horiz-adv-x="1400" d="M150 0v1465h260v-574h583v574h257v-1465h-257v660h-583v-660h-260z" />
<glyph unicode="I" horiz-adv-x="570" d="M155 0v1465h260v-1465h-260z" />
<glyph unicode="J" horiz-adv-x="1091" d="M17 339h232q33 -128 214 -128q128 0 180.5 83t52.5 252v919h260v-911q0 -292 -124 -433t-398 -141q-182 0 -294 95t-123 264z" />
<glyph unicode="K" horiz-adv-x="1264" d="M150 0v1465h260v-701l498 701h296l-459 -640l547 -825h-311l-408 624l-163 -223v-401h-260z" />
<glyph unicode="L" horiz-adv-x="1132" d="M150 0v1465h260v-1234h662v-231h-922z" />
<glyph unicode="M" horiz-adv-x="1526" d="M20 -1l295 1466h138l317 -987l310 987h137l299 -1466h-252l-152 790l-295 -809h-93l-295 809l-158 -790h-251z" />
<glyph unicode="N" horiz-adv-x="1367" d="M150 -1v1466h125l692 -884v884h250v-1485h-106l-711 927v-908h-250z" />
<glyph unicode="O" horiz-adv-x="1440" d="M80 745q0 313 171.5 529.5t458.5 216.5q316 0 483 -196t167 -550t-174.5 -562t-495.5 -208q-295 0 -452.5 206t-157.5 564zM350 745q0 -257 87 -398t253 -141q195 0 297.5 138t102.5 401q0 515 -380 515q-174 0 -267 -139.5t-93 -375.5z" />
<glyph unicode="P" horiz-adv-x="1202" d="M150 0v1464q260 11 304 11q347 0 507.5 -106.5t160.5 -332.5q0 -504 -594 -504q-44 0 -118 7v-539h-260zM410 770q66 -7 104 -7q178 0 260 59.5t82 193.5q0 228 -367 228q-41 0 -79 -5v-469z" />
<glyph unicode="Q" horiz-adv-x="1452" d="M80 740q0 322 169 536.5t451 214.5q317 0 488.5 -198.5t171.5 -552.5q0 -525 -344 -701q109 -120 362 -120q93 0 161 20v-242q-66 -9 -134 -9q-186 0 -342.5 75.5t-243.5 211.5q-37 -7 -119 -7q-289 0 -454.5 216t-165.5 556zM350 740q0 -230 92 -385t258 -155 q192 0 291 142t99 398q0 519 -390 519q-172 0 -261 -139t-89 -380z" />
<glyph unicode="R" horiz-adv-x="1251" d="M150 0v1465q22 0 169 7.5t237 7.5q558 0 558 -432q0 -130 -77 -237t-194 -151l433 -660h-300l-391 605q-59 1 -165 7v-612h-270zM420 832q72 -6 110 -6q163 0 238.5 46t75.5 179q0 108 -81 151t-255 43q-42 0 -88 -6v-407z" />
<glyph unicode="S" horiz-adv-x="1047" d="M80 81l96 233q154 -108 303 -108q229 0 229 160q0 75 -54 143t-222.5 152.5t-227 139t-90 129.5t-31.5 166q0 170 124.5 282t319.5 112q254 0 373 -95l-79 -224q-137 98 -289 98q-90 0 -139.5 -47.5t-49.5 -123.5q0 -126 279 -262q147 -72 212 -132.5t99 -141t34 -179.5 q0 -178 -140.5 -293t-376.5 -115q-205 0 -370 106z" />
<glyph unicode="T" horiz-adv-x="1253" d="M20 1234v231h1213v-231h-487v-1234h-260v1234h-466z" />
<glyph unicode="U" horiz-adv-x="1388" d="M150 458v1007h260v-993q0 -118 72 -192t198 -74q141 0 219.5 72.5t78.5 198.5v988h260v-1008q0 -226 -151.5 -354t-404.5 -128q-255 0 -393.5 125t-138.5 358z" />
<glyph unicode="V" horiz-adv-x="1273" d="M5 1465h286l339 -990l358 990h280l-572 -1485h-143z" />
<glyph unicode="W" horiz-adv-x="1810" d="M5 1465h271l275 -884l297 884h114l298 -884l274 884h271l-474 -1485h-107l-320 924l-311 -924h-107z" />
<glyph unicode="X" horiz-adv-x="1230" d="M5 0l439 759l-404 707l266 -1l297 -495l327 495h272l-464 -710l487 -755h-283l-346 527l-320 -527h-271z" />
<glyph unicode="Y" horiz-adv-x="1256" d="M5 1465h276l347 -625l348 625h275l-492 -864v-601h-260v601z" />
<glyph unicode="Z" horiz-adv-x="1147" d="M80 0v84l611 1150h-601v231h955v-84l-613 -1150h635v-231h-987z" />
<glyph unicode="[" horiz-adv-x="823" d="M150 -420v1930h523v-223h-263v-1484h263v-223h-523z" />
<glyph unicode="\" horiz-adv-x="728" d="M-8 1471h206l537 -1471h-207z" />
<glyph unicode="]" horiz-adv-x="823" d="M150 -197h263v1484h-263v223h523v-1930h-523v223z" />
<glyph unicode="^" d="M188 903l358 568h107l356 -564h-197l-214 358l-218 -362h-192z" />
<glyph unicode="_" d="M-8 -125h1215v-209h-1215v209z" />
<glyph unicode="`" d="M370 1508h267l169 -293h-210z" />
<glyph unicode="a" horiz-adv-x="1091" d="M65 312q0 186 139.5 291t396.5 105q44 0 104 -15q0 189 -239 189q-141 0 -236 -47l-54 194q129 62 307 62q245 0 359 -111.5t114 -422.5v-229q0 -214 86 -269q-31 -54 -69 -66.5t-87 -12.5q-54 0 -97 40t-58 87q-34 -56 -118.5 -91.5t-176.5 -35.5q-173 0 -272 86.5 t-99 245.5zM315 323q0 -144 167 -144q225 0 225 225v100q-64 13 -96 13q-296 0 -296 -194z" />
<glyph unicode="b" horiz-adv-x="1191" d="M115 -20v1490l250 60v-500q100 61 218 61q235 0 379 -148.5t144 -380.5q0 -269 -145 -425.5t-393 -156.5q-149 0 -256 79l-56 -79h-141zM365 257q55 -65 149 -65q181 0 256.5 86t75.5 275q0 326 -312 326q-111 0 -169 -63v-559z" />
<glyph unicode="c" horiz-adv-x="1048" d="M65 526q0 253 157 409t428 156q187 0 325 -105l-107 -187q-88 83 -236 83q-142 0 -224.5 -94.5t-82.5 -261.5q0 -337 321 -337q139 0 245 92l92 -197q-109 -68 -190.5 -86t-192.5 -18q-248 0 -391.5 144.5t-143.5 401.5z" />
<glyph unicode="d" horiz-adv-x="1189" d="M85 518q0 254 147.5 413.5t369.5 159.5q122 0 222 -50v429l250 60v-1530h-250v65q-31 -34 -105 -59.5t-153 -25.5q-224 0 -352.5 142t-128.5 396zM345 525q0 -334 322 -334q36 0 88.5 21.5t68.5 43.5v559q-80 64 -167 64q-150 0 -231 -91.5t-81 -262.5z" />
<glyph unicode="e" horiz-adv-x="1177" d="M65 524q0 253 156.5 410t375.5 157q233 0 374 -139t141 -354q0 -46 -21 -139h-765q7 -128 88 -199t218 -71q171 0 260 89l97 -191q-132 -107 -394 -107q-245 0 -387.5 143.5t-142.5 400.5zM335 647h526q-26 235 -260 235q-214 0 -266 -235z" />
<glyph unicode="f" horiz-adv-x="757" d="M35 865v206h157q8 197 116.5 318t280.5 121q89 0 217 -39l-74 -190q-82 27 -126 27q-71 0 -120.5 -61t-49.5 -150q0 -13 1 -26h222v-206h-218v-865h-250v865h-156z" />
<glyph unicode="g" horiz-adv-x="1028" d="M50 696q0 172 126 284.5t310 112.5q144 0 241 -54l98 114l173 -157l-119 -87q62 -94 62 -222q0 -183 -111.5 -292.5t-281.5 -109.5q-27 0 -72 5l-41 6q-7 0 -53.5 -21.5t-46.5 -44.5q0 -40 69 -40q31 0 104 15t125 15q365 0 365 -293q0 -162 -146 -254.5t-352 -92.5 q-246 0 -445 145l158 195q131 -120 292 -120q108 0 178 32t70 88q0 95 -155 95q-42 0 -125 -10t-125 -10q-258 0 -258 185q0 53 43 104t100 75q-183 119 -183 337zM305 695q0 -95 52.5 -152.5t141.5 -57.5t137 56t48 154q0 81 -51.5 137t-133.5 56q-86 0 -140 -54t-54 -139z " />
<glyph unicode="h" horiz-adv-x="1214" d="M135 0v1470l254 60v-527q97 88 267 88q201 0 312 -111.5t111 -319.5v-660h-251v660q0 99 -62 159t-162 60q-62 0 -125 -33.5t-90 -76.5v-769h-254z" />
<glyph unicode="i" horiz-adv-x="611" d="M65 866v205h390v-1071h-253v866h-137zM186 1341q0 60 42.5 102.5t102.5 42.5t102.5 -42.5t42.5 -102.5t-42.5 -102.5t-102.5 -42.5t-102.5 42.5t-42.5 102.5z" />
<glyph unicode="j" horiz-adv-x="751" d="M-12 -197q200 0 270.5 47.5t70.5 170.5v844h-193v206h443v-1046q0 -230 -144.5 -337.5t-446.5 -107.5v223zM301 1341q0 60 42.5 102.5t102.5 42.5t102.5 -42.5t42.5 -102.5t-42.5 -102.5t-102.5 -42.5t-102.5 42.5t-42.5 102.5z" />
<glyph unicode="k" horiz-adv-x="1122" d="M135 0v1470l250 60v-870l357 411h301l-362 -406l436 -665h-297l-315 485l-120 -127v-358h-250z" />
<glyph unicode="l" horiz-adv-x="604" d="M178 216v1254l250 60v-1204q0 -198 118 -236q-58 -110 -198 -110q-170 0 -170 236z" />
<glyph unicode="m" horiz-adv-x="1760" d="M135 0v1071h172l51 -94q104 114 269 114q213 0 321 -116q47 53 131 84.5t168 31.5q179 0 278.5 -102.5t99.5 -281.5v-707h-250v671q0 211 -189 211q-56 0 -108 -33t-73 -76v-773h-250v710q0 79 -49 125.5t-138 46.5q-47 0 -102.5 -35t-80.5 -77v-770h-250z" />
<glyph unicode="n" horiz-adv-x="1209" d="M135 0v1071h180l46 -100q102 120 301 120q191 0 301.5 -114.5t110.5 -319.5v-657h-250v619q0 137 -52.5 200t-171.5 63q-55 0 -117.5 -31t-97.5 -77v-774h-250z" />
<glyph unicode="o" horiz-adv-x="1159" d="M65 538q0 245 141.5 399t373.5 154q244 0 379 -148t135 -405q0 -256 -137.5 -407t-376.5 -151q-244 0 -379.5 152.5t-135.5 405.5zM325 538q0 -354 255 -354q117 0 185.5 92t68.5 262q0 349 -254 349q-117 0 -186 -92t-69 -257z" />
<glyph unicode="p" horiz-adv-x="1193" d="M115 -420v1491h250v-72q94 92 231 92q512 0 512 -564q0 -263 -141.5 -405t-386.5 -142q-118 0 -215 47v-447h-250zM365 246q68 -55 159 -55q173 0 248.5 82.5t75.5 260.5q0 190 -75 267.5t-248 77.5q-90 0 -160 -70v-563z" />
<glyph unicode="q" horiz-adv-x="1196" d="M85 525q0 259 151.5 412.5t387.5 153.5q140 0 254 -84l41 64h162v-1491h-250v450q-90 -50 -248 -50q-234 0 -366 142.5t-132 402.5zM345 525q0 -334 303 -334q111 0 183 52v574q-67 62 -175 62q-146 0 -228.5 -96.5t-82.5 -257.5z" />
<glyph unicode="r" horiz-adv-x="875" d="M135 0v1071h250v-98q105 118 279 118q128 0 196 -39l-106 -214q-67 44 -147 44q-87 0 -154.5 -79t-67.5 -193v-610h-250z" />
<glyph unicode="s" horiz-adv-x="882" d="M65 797q0 139 106 216.5t271 77.5q167 0 314 -75l-72 -194q-82 70 -228 70q-131 0 -131 -104q0 -41 43 -74t184 -88.5t203 -134.5t62 -191q0 -149 -110.5 -234.5t-300.5 -85.5q-107 0 -171.5 17.5t-165.5 71.5l89 199q112 -89 253 -89q146 0 146 104q0 61 -44 100 t-171 92q-277 115 -277 322z" />
<glyph unicode="t" horiz-adv-x="812" d="M49 870v201h124v218l250 92v-310h294v-201h-294v-469q0 -115 36 -162.5t126 -47.5t168 49v-230q-87 -30 -248 -30q-160 0 -246 90.5t-86 257.5v542h-124z" />
<glyph unicode="u" horiz-adv-x="1210" d="M135 376v695h250v-676q0 -206 185 -206q85 0 158 44t97 102v736h250v-1072h-250v90q-53 -45 -146 -77t-171 -32q-373 0 -373 396z" />
<glyph unicode="v" horiz-adv-x="1080" d="M5 1071h274l256 -654l275 654h265l-496 -1091h-90z" />
<glyph unicode="w" horiz-adv-x="1605" d="M13 1071h263l215 -639l262 639h90l271 -643l232 643h246l-405 -1091h-91l-294 658l-293 -658h-92z" />
<glyph unicode="x" horiz-adv-x="1131" d="M5 0l411 548l-378 523h287l226 -327l252 327h285l-411 -523l449 -548h-303l-275 349l-247 -349h-296z" />
<glyph unicode="y" horiz-adv-x="1093" d="M5 1071h259l292 -740l263 740h259l-469 -1243q-40 -107 -171.5 -177.5t-306.5 -70.5v221q289 0 289 145q0 96 -80 294z" />
<glyph unicode="z" horiz-adv-x="1082" d="M65 0v85l581 768h-571v218h936v-88l-560 -765h566v-218h-952z" />
<glyph unicode="{" horiz-adv-x="888" d="M81 500v136q209 15 209 195q0 64 -37 186.5t-37 186.5q0 139 123 222.5t293 83.5h178v-187h-205q-134 0 -134 -149q0 -56 31.5 -162.5t31.5 -162.5q0 -154 -192 -275q192 -100 192 -246q0 -62 -31.5 -181.5t-31.5 -180.5q0 -70 29.5 -114.5t85 -61t224.5 -16.5v-194h-169 q-180 0 -302.5 86t-122.5 232q0 72 37 212t37 212q0 165 -209 178z" />
<glyph unicode="|" d="M505 -420v1930h206v-1930h-206z" />
<glyph unicode="}" horiz-adv-x="888" d="M81 -226q169 0 224.5 16.5t85 61t29.5 114.5q0 61 -31.5 180.5t-31.5 181.5q0 146 192 246q-192 121 -192 275q0 56 31.5 162.5t31.5 162.5q0 149 -134 149h-205v187h178q169 0 292.5 -83.5t123.5 -222.5q0 -64 -37 -186.5t-37 -186.5q0 -180 209 -195v-136 q-209 -13 -209 -178q0 -72 37 -212t37 -212q0 -146 -122.5 -232t-302.5 -86h-169v194z" />
<glyph unicode="~" d="M180 479q21 120 78.5 193.5t141.5 73.5q48 0 96 -10t197 -56q41 -11 73 -11q60 0 87 77h148q-38 -148 -92 -207.5t-139 -59.5q-47 0 -96 10t-144.5 38.5t-114.5 28.5q-52 0 -89 -77h-146z" />
<glyph unicode="&#xa1;" horiz-adv-x="752" d="M218 927q0 68 48 116t116 48t115.5 -48t47.5 -116t-47.5 -116t-115.5 -48t-116 48t-48 116zM244 -10q0 199 78 699h104q78 -500 78 -700v-409h-260v410z" />
<glyph unicode="&#xa2;" d="M224 528q0 195 120.5 314.5t327.5 119.5q18 0 35 -1l48 119h122l-58 -144q60 -21 110 -60l-91 -158q-37 35 -86 52l-188 -467q46 -18 105 -18q101 0 188 76l78 -168q-86 -53 -149.5 -68.5t-150.5 -15.5q-76 0 -141 19l-44 -110h-123l63 156q-166 109 -166 354zM439 528 q0 -90 34 -148l163 405q-197 -17 -197 -257z" />
<glyph unicode="&#xa3;" horiz-adv-x="1074" d="M102 0v183q90 29 90 103v394h-82v201h82v113q0 236 121 366.5t316 130.5q220 0 330 -145l-130 -177q-80 103 -223 103q-154 0 -154 -270v-121h199v-201h-199v-449h193q77 0 126 25t102 96l187 -141q-124 -211 -484 -211h-474z" />
<glyph unicode="&#xa4;" d="M68 335l147 144q-73 122 -73 247q0 124 73 246l-147 144l126 132l148 -148q118 75 249 75t249 -74l147 147l127 -132l-147 -144q74 -122 74 -246q0 -125 -74 -247l147 -144l-127 -132l-147 148q-118 -75 -249 -75t-250 75l-147 -148zM321 726q0 -113 78 -191.5t191 -78.5 q111 0 190 79t79 191t-78.5 190.5t-190.5 78.5q-113 0 -191 -78.5t-78 -190.5z" />
<glyph unicode="&#xa5;" horiz-adv-x="1168" d="M-39 1465h275l348 -625l348 625h275l-492 -864v-81h210v-194h-210v-326h-260v326h-204v194h204v81z" />
<glyph unicode="&#xa6;" d="M504 417h206v-837h-206v837zM504 673v837h206v-837h-206z" />
<glyph unicode="&#xa7;" horiz-adv-x="929" d="M55 1163q0 143 121 235t301 92q72 0 167.5 -33t156.5 -82l-103 -218q-41 43 -105 72.5t-111 29.5q-157 0 -157 -103q0 -27 15.5 -47t40.5 -31.5t124 -34.5q179 -41 256 -117.5t77 -200.5q0 -98 -66 -170q108 -80 108 -217q0 -173 -116.5 -267t-313.5 -94q-232 0 -385 107 l91 240q134 -118 283 -118q171 0 171 112q0 107 -205 147q-152 30 -240 102t-88 173q0 116 77 188q-99 85 -99 235zM321 786q0 -45 32 -75t230 -79q1 11 1 76q0 41 -42 84.5t-183 62.5q-38 -25 -38 -69z" />
<glyph unicode="&#xa8;" d="M145 1357q0 59 42 101t101 42t100.5 -42t41.5 -101t-41.5 -100.5t-100.5 -41.5t-101 41.5t-42 100.5zM765 1357q0 59 42 101t101 42t100.5 -42t41.5 -101t-41.5 -100.5t-100.5 -41.5t-101 41.5t-42 100.5z" />
<glyph unicode="&#xa9;" horiz-adv-x="1460" d="M75 661q0 292 206.5 498t498.5 206t498 -206t206 -498t-206 -498.5t-498 -206.5t-498.5 206.5t-206.5 498.5zM245 661q0 -221 157 -378t378 -157t377.5 156.5t156.5 378.5q0 221 -156.5 377.5t-377.5 156.5q-222 0 -378.5 -156.5t-156.5 -377.5zM437 663 q0 178 97.5 297.5t252.5 119.5q131 0 225 -55l-56 -142q-69 51 -167 51q-86 0 -138.5 -76.5t-52.5 -199.5q0 -119 55 -189.5t138 -70.5q91 0 162 92l92 -126q-115 -113 -265 -113q-159 0 -251 114t-92 298z" />
<glyph unicode="&#xaa;" horiz-adv-x="879" d="M148 998q0 113 89.5 173t237.5 60q24 0 56 -6q0 59 -38.5 95t-98.5 36q-81 0 -152 -35l-40 126q92 44 202 44q112 0 180.5 -43.5t93.5 -125.5t25 -334q0 -107 58 -148q-45 -46 -113 -46q-64 0 -92 87q-21 -38 -75 -62.5t-105 -24.5q-101 0 -164.5 55t-63.5 149zM318 1015 q0 -91 85 -91q130 0 130 120v67q-39 5 -52 5q-163 0 -163 -101z" />
<glyph unicode="&#xab;" d="M99 519v96l415 285v-197l-189 -140l189 -124v-197zM588 519v96l415 285v-197l-189 -140l189 -124v-197z" />
<glyph unicode="&#xac;" d="M164 765v201h898v-556h-201v355h-697z" />
<glyph unicode="&#xad;" horiz-adv-x="752" d="M109 476v235h529v-235h-529z" />
<glyph unicode="&#xae;" horiz-adv-x="1460" d="M75 661q0 292 206.5 498t498.5 206t498 -206t206 -498t-206 -498.5t-498 -206.5t-498.5 206.5t-206.5 498.5zM245 661q0 -221 157 -378t378 -157t377.5 156.5t156.5 378.5q0 221 -156.5 377.5t-377.5 156.5q-222 0 -378.5 -156.5t-156.5 -377.5zM522 267v805h220 q297 0 297 -235q0 -145 -133 -216l214 -354h-180l-190 323h-66v-323h-162zM684 729q94 0 127.5 5t49.5 27.5t16 68.5q0 96 -135 96h-58v-197z" />
<glyph unicode="&#xaf;" d="M-8 1675h1215v-209h-1215v209z" />
<glyph unicode="&#xb0;" d="M387 1282q0 99 71 169t171 70t170.5 -70t70.5 -169t-70.5 -169.5t-170.5 -70.5t-171 70.5t-71 169.5zM520 1282q0 -45 32 -77t77 -32t77 32t32 77t-32 77t-77 32t-77 -32t-32 -77z" />
<glyph unicode="&#xb1;" d="M164 0v201h348v334h-348v201h348v343h201v-343h349v-201h-349v-334h349v-201h-898z" />
<glyph unicode="&#xb2;" horiz-adv-x="924" d="M113 1350q73 170 289 170q140 0 217 -69.5t77 -184.5q0 -76 -44.5 -184t-206.5 -339h309v-178h-600v63l271 421q81 126 81 207q0 35 -35.5 63.5t-82.5 28.5q-105 0 -166 -101z" />
<glyph unicode="&#xb3;" horiz-adv-x="929" d="M147 651l92 159q67 -75 153 -75q133 0 133 112q0 133 -144 133h-40v162h36q118 0 118 109q0 89 -109 89q-71 0 -129 -65l-85 144q77 101 223 101q127 0 208.5 -70.5t81.5 -179.5q0 -127 -99 -202q129 -76 129 -230q0 -136 -86.5 -209.5t-238.5 -73.5q-141 0 -243 96z" />
<glyph unicode="&#xb4;" d="M401 1215l169 293h247l-226 -293h-190z" />
<glyph unicode="&#xb5;" horiz-adv-x="1120" d="M90 -420v1491h250v-676q0 -206 185 -206q85 0 158 44t97 102v736h250v-1072h-250v90q-129 -109 -297 -109q-85 0 -143 43v-443h-250z" />
<glyph unicode="&#xb6;" horiz-adv-x="1074" d="M118 1077q0 176 81 294t226 118h507v-1739h-154v1616h-158v-1616h-154v893q-348 0 -348 434z" />
<glyph unicode="&#xb7;" horiz-adv-x="752" d="M205 741q0 75 52.5 127.5t127.5 52.5t127.5 -52.5t52.5 -127.5t-52.5 -128t-127.5 -53t-127.5 53t-52.5 128z" />
<glyph unicode="&#xb8;" d="M424 -298q34 -9 70 -9q131 0 131 91q0 33 -20.5 64t-51.5 39l85 89q180 -37 180 -207q0 -96 -71 -150.5t-184 -54.5q-51 0 -98 11z" />
<glyph unicode="&#xb9;" horiz-adv-x="924" d="M221 1104v184q208 105 297 220h81v-943h-190v651z" />
<glyph unicode="&#xba;" horiz-adv-x="879" d="M105 1144q0 153 89 250t235 97q152 0 237.5 -93.5t85.5 -253.5q0 -158 -86.5 -254t-236.5 -96t-237 95.5t-87 254.5zM291 1144q0 -197 138 -197q137 0 137 197q0 194 -137 194q-138 0 -138 -194z" />
<glyph unicode="&#xbb;" d="M139 242v197l189 124l-189 140v197l415 -285v-96zM628 242v197l189 124l-189 140v197l415 -285v-96z" />
<glyph unicode="&#xbc;" horiz-adv-x="1668" d="M92 1104v184q206 104 297 220h81v-943h-190v651zM279 -35l884 1526h166l-882 -1526h-168zM892 230v111l490 602h100v-559h89v-154h-89v-230h-190v230h-400zM1094 384h198v258z" />
<glyph unicode="&#xbd;" horiz-adv-x="1668" d="M85 1104v184q207 105 297 220h81v-943h-190v651zM212 -35l884 1526h166l-882 -1526h-168zM967 785q73 170 289 170q140 0 217 -69.5t77 -184.5q0 -76 -44.5 -184t-206.5 -339h309v-178h-600v63l271 421q81 126 81 207q0 35 -36 63.5t-82 28.5q-105 0 -166 -101z" />
<glyph unicode="&#xbe;" horiz-adv-x="1668" d="M63 651l91 159q68 -75 154 -75q133 0 133 112q0 133 -144 133h-40v162h36q118 0 118 109q0 89 -109 89q-72 0 -129 -65l-86 144q78 101 224 101q126 0 208 -70.5t82 -179.5q0 -127 -99 -202q129 -76 129 -230q0 -135 -87 -209t-238 -74q-141 0 -243 96zM313 -35l884 1526 h166l-882 -1526h-168zM927 230v111l490 602h100v-559h89v-154h-89v-230h-190v230h-400zM1129 384h198v258z" />
<glyph unicode="&#xbf;" horiz-adv-x="897" d="M103 -91q0 74 29.5 149.5t144.5 185.5t139.5 172.5t24.5 126.5q0 16 -14 84h192q2 -7 18 -51t16 -77q0 -64 -18 -122.5t-49.5 -106.5t-134 -160.5t-102.5 -184.5q0 -140 183 -140q90 0 187 89l102 -193q-128 -101 -339 -101q-161 0 -270 90.5t-109 238.5zM350 927 q0 68 47.5 116t115.5 48t116 -48t48 -116t-48 -116t-116 -48t-115.5 48t-47.5 116z" />
<glyph unicode="&#xc0;" horiz-adv-x="1297" d="M5 0l584 1485h114l589 -1485h-287l-107 297h-502l-102 -297h-289zM470 496h352l-176 541zM350 1878h267l169 -293h-210z" />
<glyph unicode="&#xc1;" horiz-adv-x="1297" d="M5 0l584 1485h114l589 -1485h-287l-107 297h-502l-102 -297h-289zM470 496h352l-176 541zM521 1585l169 293h247l-226 -293h-190z" />
<glyph unicode="&#xc2;" horiz-adv-x="1297" d="M5 0l584 1485h114l589 -1485h-287l-107 297h-502l-102 -297h-289zM470 496h352l-176 541zM261 1585l355 315h107l368 -315h-267l-157 149l-139 -149h-267z" />
<glyph unicode="&#xc3;" horiz-adv-x="1297" d="M5 0l584 1485h114l589 -1485h-287l-107 297h-502l-102 -297h-289zM470 496h352l-176 541zM311 1555q19 114 76.5 185.5t142.5 71.5q78 0 156 -38.5t100 -38.5q61 0 87 77h148q-38 -149 -93 -203t-138 -54q-62 0 -141.5 38.5t-103.5 38.5q-52 0 -89 -77h-145z" />
<glyph unicode="&#xc4;" horiz-adv-x="1297" d="M5 0l584 1485h114l589 -1485h-287l-107 297h-502l-102 -297h-289zM470 496h352l-176 541zM189 1727q0 59 42 101t101 42t100.5 -42t41.5 -101t-41.5 -100.5t-100.5 -41.5t-101 41.5t-42 100.5zM809 1727q0 59 42 101t101 42t100.5 -42t41.5 -101t-41.5 -100.5 t-100.5 -41.5t-101 41.5t-42 100.5z" />
<glyph unicode="&#xc5;" horiz-adv-x="1297" d="M5 0l545 1386q-154 51 -154 196q0 91 76 151t176 60q103 0 177.5 -59t74.5 -152q0 -145 -158 -196l550 -1386h-287l-107 297h-502l-102 -297h-289zM470 496h352l-176 541zM541 1581q0 -96 106 -96t106 96t-106 96q-44 0 -75 -25.5t-31 -70.5z" />
<glyph unicode="&#xc6;" horiz-adv-x="1915" d="M2 0l888 1465h965v-231h-675v-343h484v-221h-484v-439h664v-231h-924v297h-446l-183 -297h-289zM568 496h352v581z" />
<glyph unicode="&#xc7;" horiz-adv-x="1253" d="M80 728q0 325 188.5 543.5t482.5 218.5q252 0 403 -103l-107 -215q-87 87 -280 87q-183 0 -300 -153.5t-117 -388.5t108.5 -373t289.5 -138q207 0 324 148l121 -210q-159 -169 -466 -169t-477 202t-170 551zM474 -298q34 -9 70 -9q131 0 131 91q0 33 -20.5 64t-51.5 39 l85 89q180 -37 180 -207q0 -96 -71 -150.5t-184 -54.5q-51 0 -98 11z" />
<glyph unicode="&#xc8;" horiz-adv-x="1165" d="M150 0v1465h935v-231h-675v-343h484v-221h-484v-439h664v-231h-924zM340 1878h267l169 -293h-210z" />
<glyph unicode="&#xc9;" horiz-adv-x="1165" d="M150 0v1465h935v-231h-675v-343h484v-221h-484v-439h664v-231h-924zM461 1585l169 293h247l-226 -293h-190z" />
<glyph unicode="&#xca;" horiz-adv-x="1165" d="M150 0v1465h935v-231h-675v-343h484v-221h-484v-439h664v-231h-924zM201 1585l355 315h107l368 -315h-267l-157 149l-139 -149h-267z" />
<glyph unicode="&#xcb;" horiz-adv-x="1165" d="M150 0v1465h935v-231h-675v-343h484v-221h-484v-439h664v-231h-924zM155 1727q0 59 42 101t101 42t100.5 -42t41.5 -101t-41.5 -100.5t-100.5 -41.5t-101 41.5t-42 100.5zM775 1727q0 59 42 101t101 42t100.5 -42t41.5 -101t-41.5 -100.5t-100.5 -41.5t-101 41.5 t-42 100.5z" />
<glyph unicode="&#xcc;" horiz-adv-x="570" d="M155 0v1465h260v-1465h-260zM15 1878h267l169 -293h-210z" />
<glyph unicode="&#xcd;" horiz-adv-x="570" d="M155 0v1465h260v-1465h-260zM155 1585l169 293h247l-226 -293h-190z" />
<glyph unicode="&#xce;" horiz-adv-x="570" d="M155 0v1465h260v-1465h-260zM-129 1585l355 315h107l368 -315h-267l-157 149l-139 -149h-267z" />
<glyph unicode="&#xcf;" horiz-adv-x="570" d="M155 0v1465h260v-1465h-260zM-145 1727q0 59 42 101t101 42t100.5 -42t41.5 -101t-41.5 -100.5t-100.5 -41.5t-101 41.5t-42 100.5zM475 1727q0 59 42 101t101 42t100.5 -42t41.5 -101t-41.5 -100.5t-100.5 -41.5t-101 41.5t-42 100.5z" />
<glyph unicode="&#xd0;" horiz-adv-x="1316" d="M26 694v204h124v566q311 11 391 11q320 0 507.5 -187.5t187.5 -497.5q0 -790 -761 -790h-325v694h-124zM410 237q63 -6 136 -6q197 0 308.5 143t111.5 400q0 470 -437 470q-42 0 -119 -7v-339h137v-204h-137v-457z" />
<glyph unicode="&#xd1;" horiz-adv-x="1367" d="M150 -1v1466h125l692 -884v884h250v-1485h-106l-711 927v-908h-250zM321 1555q19 114 76.5 185.5t142.5 71.5q78 0 156 -38.5t100 -38.5q61 0 87 77h148q-38 -149 -93 -203t-138 -54q-62 0 -141.5 38.5t-103.5 38.5q-52 0 -89 -77h-145z" />
<glyph unicode="&#xd2;" horiz-adv-x="1440" d="M80 745q0 313 171.5 529.5t458.5 216.5q316 0 483 -196t167 -550t-174.5 -562t-495.5 -208q-295 0 -452.5 206t-157.5 564zM350 745q0 -257 87 -398t253 -141q195 0 297.5 138t102.5 401q0 515 -380 515q-174 0 -267 -139.5t-93 -375.5zM440 1878h267l169 -293h-210z" />
<glyph unicode="&#xd3;" horiz-adv-x="1440" d="M80 745q0 313 171.5 529.5t458.5 216.5q316 0 483 -196t167 -550t-174.5 -562t-495.5 -208q-295 0 -452.5 206t-157.5 564zM350 745q0 -257 87 -398t253 -141q195 0 297.5 138t102.5 401q0 515 -380 515q-174 0 -267 -139.5t-93 -375.5zM581 1585l169 293h247l-226 -293 h-190z" />
<glyph unicode="&#xd4;" horiz-adv-x="1440" d="M80 745q0 313 171.5 529.5t458.5 216.5q316 0 483 -196t167 -550t-174.5 -562t-495.5 -208q-295 0 -452.5 206t-157.5 564zM350 745q0 -257 87 -398t253 -141q195 0 297.5 138t102.5 401q0 515 -380 515q-174 0 -267 -139.5t-93 -375.5zM321 1585l355 315h107l368 -315 h-267l-157 149l-139 -149h-267z" />
<glyph unicode="&#xd5;" horiz-adv-x="1440" d="M80 745q0 313 171.5 529.5t458.5 216.5q316 0 483 -196t167 -550t-174.5 -562t-495.5 -208q-295 0 -452.5 206t-157.5 564zM350 745q0 -257 87 -398t253 -141q195 0 297.5 138t102.5 401q0 515 -380 515q-174 0 -267 -139.5t-93 -375.5zM361 1555q19 114 76.5 185.5 t142.5 71.5q78 0 156 -38.5t100 -38.5q61 0 87 77h148q-38 -149 -93 -203t-138 -54q-62 0 -141.5 38.5t-103.5 38.5q-52 0 -89 -77h-145z" />
<glyph unicode="&#xd6;" horiz-adv-x="1440" d="M80 745q0 313 171.5 529.5t458.5 216.5q316 0 483 -196t167 -550t-174.5 -562t-495.5 -208q-295 0 -452.5 206t-157.5 564zM350 745q0 -257 87 -398t253 -141q195 0 297.5 138t102.5 401q0 515 -380 515q-174 0 -267 -139.5t-93 -375.5zM275 1727q0 59 42 101t101 42 t100.5 -42t41.5 -101t-41.5 -100.5t-100.5 -41.5t-101 41.5t-42 100.5zM895 1727q0 59 42 101t101 42t100.5 -42t41.5 -101t-41.5 -100.5t-100.5 -41.5t-101 41.5t-42 100.5z" />
<glyph unicode="&#xd7;" d="M153 949l142 142l321 -321l317 317l143 -141l-317 -317l314 -315l-143 -142l-314 315l-317 -317l-142 141l317 317z" />
<glyph unicode="&#xd8;" horiz-adv-x="1400" d="M60 -25l154 210q-154 205 -154 560q0 313 171.5 529.5t458.5 216.5q242 0 398 -116l85 116h167l-155 -211q155 -194 155 -535q0 -354 -174.5 -562t-495.5 -208q-216 0 -360 113l-83 -113h-167zM330 745q0 -198 53 -330l557 758q-92 87 -250 87q-174 0 -267 -139.5 t-93 -375.5zM460 292q82 -86 210 -86q195 0 297.5 138t102.5 401q0 191 -50 310z" />
<glyph unicode="&#xd9;" horiz-adv-x="1388" d="M150 458v1007h260v-993q0 -118 72 -192t198 -74q141 0 219.5 72.5t78.5 198.5v988h260v-1008q0 -226 -151.5 -354t-404.5 -128q-255 0 -393.5 125t-138.5 358zM420 1878h267l169 -293h-210z" />
<glyph unicode="&#xda;" horiz-adv-x="1388" d="M150 458v1007h260v-993q0 -118 72 -192t198 -74q141 0 219.5 72.5t78.5 198.5v988h260v-1008q0 -226 -151.5 -354t-404.5 -128q-255 0 -393.5 125t-138.5 358zM561 1585l169 293h247l-226 -293h-190z" />
<glyph unicode="&#xdb;" horiz-adv-x="1388" d="M150 458v1007h260v-993q0 -118 72 -192t198 -74q141 0 219.5 72.5t78.5 198.5v988h260v-1008q0 -226 -151.5 -354t-404.5 -128q-255 0 -393.5 125t-138.5 358zM274 1585l355 315h107l368 -315h-267l-157 149l-139 -149h-267z" />
<glyph unicode="&#xdc;" horiz-adv-x="1388" d="M150 458v1007h260v-993q0 -118 72 -192t198 -74q141 0 219.5 72.5t78.5 198.5v988h260v-1008q0 -226 -151.5 -354t-404.5 -128q-255 0 -393.5 125t-138.5 358zM235 1727q0 59 42 101t101 42t100.5 -42t41.5 -101t-41.5 -100.5t-100.5 -41.5t-101 41.5t-42 100.5z M855 1727q0 59 42 101t101 42t100.5 -42t41.5 -101t-41.5 -100.5t-100.5 -41.5t-101 41.5t-42 100.5z" />
<glyph unicode="&#xdd;" horiz-adv-x="1256" d="M5 1465h276l347 -625l348 625h275l-492 -864v-601h-260v601zM501 1585l169 293h247l-226 -293h-190z" />
<glyph unicode="&#xde;" horiz-adv-x="1142" d="M120 0v1464l260 2v-202q25 1 44 1q347 0 507.5 -106.5t160.5 -332.5q0 -504 -594 -504q-44 0 -118 7v-329h-260zM380 560q66 -7 104 -7q178 0 260 59.5t82 193.5q0 228 -367 228q-41 0 -79 -5v-469z" />
<glyph unicode="&#xdf;" horiz-adv-x="1119" d="M105 -1v1102q0 189 101.5 299t267.5 110q186 0 293 -79t107 -217q0 -63 -23 -122q-22 -57 -67 -111q-37 -44 -38 -44q0 -10 76 -48q247 -124 247 -432q0 -220 -105 -348.5t-301 -128.5q-82 0 -176 32l48 197q78 -12 79 -12q195 0 195 248q0 57 -16 103t-45.5 80.5 t-145.5 120t-116 179.5q0 33 76.5 97t76.5 137q0 127 -139 127q-80 0 -112.5 -60t-32.5 -223v-1007h-250z" />
<glyph unicode="&#xe0;" horiz-adv-x="1091" d="M65 312q0 186 139.5 291t396.5 105q44 0 104 -15q0 189 -239 189q-141 0 -236 -47l-54 194q129 62 307 62q245 0 359 -111.5t114 -422.5v-229q0 -214 86 -269q-31 -54 -69 -66.5t-87 -12.5q-54 0 -97 40t-58 87q-34 -56 -118.5 -91.5t-176.5 -35.5q-173 0 -272 86.5 t-99 245.5zM315 323q0 -144 167 -144q225 0 225 225v100q-64 13 -96 13q-296 0 -296 -194zM240 1508h267l169 -293h-210z" />
<glyph unicode="&#xe1;" horiz-adv-x="1091" d="M65 312q0 186 139.5 291t396.5 105q44 0 104 -15q0 189 -239 189q-141 0 -236 -47l-54 194q129 62 307 62q245 0 359 -111.5t114 -422.5v-229q0 -214 86 -269q-31 -54 -69 -66.5t-87 -12.5q-54 0 -97 40t-58 87q-34 -56 -118.5 -91.5t-176.5 -35.5q-173 0 -272 86.5 t-99 245.5zM315 323q0 -144 167 -144q225 0 225 225v100q-64 13 -96 13q-296 0 -296 -194zM371 1215l169 293h247l-226 -293h-190z" />
<glyph unicode="&#xe2;" horiz-adv-x="1091" d="M65 312q0 186 139.5 291t396.5 105q44 0 104 -15q0 189 -239 189q-141 0 -236 -47l-54 194q129 62 307 62q245 0 359 -111.5t114 -422.5v-229q0 -214 86 -269q-31 -54 -69 -66.5t-87 -12.5q-54 0 -97 40t-58 87q-34 -56 -118.5 -91.5t-176.5 -35.5q-173 0 -272 86.5 t-99 245.5zM315 323q0 -144 167 -144q225 0 225 225v100q-64 13 -96 13q-296 0 -296 -194zM161 1215l355 315h107l368 -315h-267l-157 149l-139 -149h-267z" />
<glyph unicode="&#xe3;" horiz-adv-x="1091" d="M65 312q0 186 139.5 291t396.5 105q44 0 104 -15q0 189 -239 189q-141 0 -236 -47l-54 194q129 62 307 62q245 0 359 -111.5t114 -422.5v-229q0 -214 86 -269q-31 -54 -69 -66.5t-87 -12.5q-54 0 -97 40t-58 87q-34 -56 -118.5 -91.5t-176.5 -35.5q-173 0 -272 86.5 t-99 245.5zM315 323q0 -144 167 -144q225 0 225 225v100q-64 13 -96 13q-296 0 -296 -194zM161 1185q19 114 76.5 185.5t142.5 71.5q78 0 156 -38.5t100 -38.5q61 0 87 77h148q-38 -149 -93 -203t-138 -54q-62 0 -141.5 38.5t-103.5 38.5q-52 0 -89 -77h-145z" />
<glyph unicode="&#xe4;" horiz-adv-x="1091" d="M65 312q0 186 139.5 291t396.5 105q44 0 104 -15q0 189 -239 189q-141 0 -236 -47l-54 194q129 62 307 62q245 0 359 -111.5t114 -422.5v-229q0 -214 86 -269q-31 -54 -69 -66.5t-87 -12.5q-54 0 -97 40t-58 87q-34 -56 -118.5 -91.5t-176.5 -35.5q-173 0 -272 86.5 t-99 245.5zM315 323q0 -144 167 -144q225 0 225 225v100q-64 13 -96 13q-296 0 -296 -194zM95 1357q0 59 42 101t101 42t100.5 -42t41.5 -101t-41.5 -100.5t-100.5 -41.5t-101 41.5t-42 100.5zM715 1357q0 59 42 101t101 42t100.5 -42t41.5 -101t-41.5 -100.5t-100.5 -41.5 t-101 41.5t-42 100.5z" />
<glyph unicode="&#xe5;" horiz-adv-x="1091" d="M65 312q0 186 139.5 291t396.5 105q44 0 104 -15q0 189 -239 189q-141 0 -236 -47l-54 194q129 62 307 62q245 0 359 -111.5t114 -422.5v-229q0 -214 86 -269q-31 -54 -69 -66.5t-87 -12.5q-54 0 -97 40t-58 87q-34 -56 -118.5 -91.5t-176.5 -35.5q-173 0 -272 86.5 t-99 245.5zM315 323q0 -144 167 -144q225 0 225 225v100q-64 13 -96 13q-296 0 -296 -194zM253 1427q0 91 76 151t176 60q103 0 177.5 -59t74.5 -152t-74.5 -152t-177.5 -59q-105 0 -178.5 58t-73.5 153zM398 1426q0 -96 106 -96t106 96t-106 96q-44 0 -75 -25.5t-31 -70.5z " />
<glyph unicode="&#xe6;" horiz-adv-x="1767" d="M50 312q0 209 171 312q140 84 365 84q51 0 104 -15q0 190 -239 190q-139 0 -236 -48l-54 194q129 62 307 62q284 0 389 -147q150 147 360 147q225 0 368 -133q147 -137 147 -360q0 -50 -21 -139h-775q7 -130 97 -203q85 -67 219 -67q170 0 260 89l97 -191 q-131 -107 -394 -107q-190 0 -268 66l3 -46h-198q-13 34 -36 105q-39 -62 -132 -96q-78 -29 -163 -29q-167 0 -265 81q-106 88 -106 251zM300 323q0 -144 167 -144q225 0 225 225v100q-50 13 -96 13q-296 0 -296 -194zM945 647h536q-25 235 -260 235q-108 0 -182 -65 q-70 -62 -94 -170z" />
<glyph unicode="&#xe7;" horiz-adv-x="1048" d="M65 526q0 253 157 409t428 156q187 0 325 -105l-107 -187q-88 83 -236 83q-142 0 -224.5 -94.5t-82.5 -261.5q0 -337 321 -337q139 0 245 92l92 -197q-109 -68 -190.5 -86t-192.5 -18q-248 0 -391.5 144.5t-143.5 401.5zM314 -298q34 -9 70 -9q131 0 131 91 q0 33 -20.5 64t-51.5 39l85 89q180 -37 180 -207q0 -96 -71 -150.5t-184 -54.5q-51 0 -98 11z" />
<glyph unicode="&#xe8;" horiz-adv-x="1177" d="M65 524q0 253 156.5 410t375.5 157q233 0 374 -139t141 -354q0 -46 -21 -139h-765q7 -128 88 -199t218 -71q171 0 260 89l97 -191q-132 -107 -394 -107q-245 0 -387.5 143.5t-142.5 400.5zM335 647h526q-26 235 -260 235q-214 0 -266 -235zM350 1508h267l169 -293h-210z " />
<glyph unicode="&#xe9;" horiz-adv-x="1177" d="M65 524q0 253 156.5 410t375.5 157q233 0 374 -139t141 -354q0 -46 -21 -139h-765q7 -128 88 -199t218 -71q171 0 260 89l97 -191q-132 -107 -394 -107q-245 0 -387.5 143.5t-142.5 400.5zM335 647h526q-26 235 -260 235q-214 0 -266 -235zM481 1215l169 293h247 l-226 -293h-190z" />
<glyph unicode="&#xea;" horiz-adv-x="1177" d="M65 524q0 253 156.5 410t375.5 157q233 0 374 -139t141 -354q0 -46 -21 -139h-765q7 -128 88 -199t218 -71q171 0 260 89l97 -191q-132 -107 -394 -107q-245 0 -387.5 143.5t-142.5 400.5zM335 647h526q-26 235 -260 235q-214 0 -266 -235zM208 1215l355 315h107 l368 -315h-267l-157 149l-139 -149h-267z" />
<glyph unicode="&#xeb;" horiz-adv-x="1177" d="M65 524q0 253 156.5 410t375.5 157q233 0 374 -139t141 -354q0 -46 -21 -139h-765q7 -128 88 -199t218 -71q171 0 260 89l97 -191q-132 -107 -394 -107q-245 0 -387.5 143.5t-142.5 400.5zM335 647h526q-26 235 -260 235q-214 0 -266 -235zM135 1357q0 59 42 101t101 42 t100.5 -42t41.5 -101t-41.5 -100.5t-100.5 -41.5t-101 41.5t-42 100.5zM755 1357q0 59 42 101t101 42t100.5 -42t41.5 -101t-41.5 -100.5t-100.5 -41.5t-101 41.5t-42 100.5z" />
<glyph unicode="&#xec;" horiz-adv-x="611" d="M65 866v205h390v-1071h-253v866h-137zM65 1508h267l169 -293h-210z" />
<glyph unicode="&#xed;" horiz-adv-x="611" d="M70 866v205h390v-1071h-253v866h-137zM136 1215l169 293h247l-226 -293h-190z" />
<glyph unicode="&#xee;" horiz-adv-x="611" d="M65 866v205h390v-1071h-253v866h-137zM-89 1215l355 315h107l368 -315h-267l-157 149l-139 -149h-267z" />
<glyph unicode="&#xef;" horiz-adv-x="611" d="M65 866v205h390v-1071h-253v866h-137zM-155 1357q0 59 42 101t101 42t100.5 -42t41.5 -101t-41.5 -100.5t-100.5 -41.5t-101 41.5t-42 100.5zM465 1357q0 59 42 101t101 42t100.5 -42t41.5 -101t-41.5 -100.5t-100.5 -41.5t-101 41.5t-42 100.5z" />
<glyph unicode="&#xf0;" horiz-adv-x="1159" d="M65 546q0 242 139 396.5t376 154.5q41 0 87 -6q-40 64 -94 140l-148 -78l-58 102l136 67q-94 105 -219 188h354q36 -36 75 -81l162 88l58 -96l-153 -82q183 -272 248.5 -450.5t65.5 -342.5q0 -256 -136 -411t-378 -155t-378.5 154.5t-136.5 411.5zM315 546 q0 -345 265 -345q128 0 196 93.5t68 251.5q0 339 -264 339q-126 0 -195.5 -91.5t-69.5 -247.5z" />
<glyph unicode="&#xf1;" horiz-adv-x="1209" d="M135 0v1071h180l46 -100q102 120 301 120q191 0 301.5 -114.5t110.5 -319.5v-657h-250v619q0 137 -52.5 200t-171.5 63q-55 0 -117.5 -31t-97.5 -77v-774h-250zM251 1185q19 114 76.5 185.5t142.5 71.5q78 0 156 -38.5t100 -38.5q61 0 87 77h148q-38 -149 -93 -203 t-138 -54q-62 0 -141.5 38.5t-103.5 38.5q-52 0 -89 -77h-145z" />
<glyph unicode="&#xf2;" horiz-adv-x="1159" d="M65 538q0 245 141.5 399t373.5 154q244 0 379 -148t135 -405q0 -256 -137.5 -407t-376.5 -151q-244 0 -379.5 152.5t-135.5 405.5zM325 538q0 -354 255 -354q117 0 185.5 92t68.5 262q0 349 -254 349q-117 0 -186 -92t-69 -257zM310 1508h267l169 -293h-210z" />
<glyph unicode="&#xf3;" horiz-adv-x="1159" d="M65 538q0 245 141.5 399t373.5 154q244 0 379 -148t135 -405q0 -256 -137.5 -407t-376.5 -151q-244 0 -379.5 152.5t-135.5 405.5zM325 538q0 -354 255 -354q117 0 185.5 92t68.5 262q0 349 -254 349q-117 0 -186 -92t-69 -257zM401 1215l169 293h247l-226 -293h-190z " />
<glyph unicode="&#xf4;" horiz-adv-x="1159" d="M65 538q0 245 141.5 399t373.5 154q244 0 379 -148t135 -405q0 -256 -137.5 -407t-376.5 -151q-244 0 -379.5 152.5t-135.5 405.5zM325 538q0 -354 255 -354q117 0 185.5 92t68.5 262q0 349 -254 349q-117 0 -186 -92t-69 -257zM161 1215l355 315h107l368 -315h-267 l-157 149l-139 -149h-267z" />
<glyph unicode="&#xf5;" horiz-adv-x="1159" d="M65 538q0 245 141.5 399t373.5 154q244 0 379 -148t135 -405q0 -256 -137.5 -407t-376.5 -151q-244 0 -379.5 152.5t-135.5 405.5zM325 538q0 -354 255 -354q117 0 185.5 92t68.5 262q0 349 -254 349q-117 0 -186 -92t-69 -257zM241 1185q19 114 76.5 185.5t142.5 71.5 q78 0 156 -38.5t100 -38.5q61 0 87 77h148q-38 -149 -93 -203t-138 -54q-62 0 -141.5 38.5t-103.5 38.5q-52 0 -89 -77h-145z" />
<glyph unicode="&#xf6;" horiz-adv-x="1159" d="M65 538q0 245 141.5 399t373.5 154q244 0 379 -148t135 -405q0 -256 -137.5 -407t-376.5 -151q-244 0 -379.5 152.5t-135.5 405.5zM325 538q0 -354 255 -354q117 0 185.5 92t68.5 262q0 349 -254 349q-117 0 -186 -92t-69 -257zM145 1357q0 59 42 101t101 42t100.5 -42 t41.5 -101t-41.5 -100.5t-100.5 -41.5t-101 41.5t-42 100.5zM765 1357q0 59 42 101t101 42t100.5 -42t41.5 -101t-41.5 -100.5t-100.5 -41.5t-101 41.5t-42 100.5z" />
<glyph unicode="&#xf7;" d="M164 535v201h898v-201h-898zM463 230q0 62 44 106t106 44t106 -44t44 -106t-44 -106.5t-106 -44.5t-106 44.5t-44 106.5zM463 1020q0 62 44 106t106 44t106 -44t44 -106t-44 -106.5t-106 -44.5t-106 44.5t-44 106.5z" />
<glyph unicode="&#xf8;" horiz-adv-x="1159" d="M65 -20l125 165q-125 150 -125 393q0 245 141.5 399t373.5 154q162 0 278 -67l51 67h185l-123 -162q123 -146 123 -391q0 -256 -137.5 -407t-376.5 -151q-161 0 -277 69l-53 -69h-185zM325 538q0 -110 23 -185l376 494q-57 40 -144 40q-117 0 -186 -92t-69 -257zM435 224 q57 -40 145 -40q117 0 185.5 92t68.5 262q0 106 -23 180z" />
<glyph unicode="&#xf9;" horiz-adv-x="1210" d="M135 376v695h250v-676q0 -206 185 -206q85 0 158 44t97 102v736h250v-1072h-250v90q-53 -45 -146 -77t-171 -32q-373 0 -373 396zM330 1508h267l169 -293h-210z" />
<glyph unicode="&#xfa;" horiz-adv-x="1210" d="M135 376v695h250v-676q0 -206 185 -206q85 0 158 44t97 102v736h250v-1072h-250v90q-53 -45 -146 -77t-171 -32q-373 0 -373 396zM451 1215l169 293h247l-226 -293h-190z" />
<glyph unicode="&#xfb;" horiz-adv-x="1210" d="M135 376v695h250v-676q0 -206 185 -206q85 0 158 44t97 102v736h250v-1072h-250v90q-53 -45 -146 -77t-171 -32q-373 0 -373 396zM191 1215l355 315h107l368 -315h-267l-157 149l-139 -149h-267z" />
<glyph unicode="&#xfc;" horiz-adv-x="1210" d="M135 376v695h250v-676q0 -206 185 -206q85 0 158 44t97 102v736h250v-1072h-250v90q-53 -45 -146 -77t-171 -32q-373 0 -373 396zM155 1357q0 59 42 101t101 42t100.5 -42t41.5 -101t-41.5 -100.5t-100.5 -41.5t-101 41.5t-42 100.5zM775 1357q0 59 42 101t101 42 t100.5 -42t41.5 -101t-41.5 -100.5t-100.5 -41.5t-101 41.5t-42 100.5z" />
<glyph unicode="&#xfd;" horiz-adv-x="1093" d="M5 1071h259l292 -740l263 740h259l-469 -1243q-40 -107 -171.5 -177.5t-306.5 -70.5v221q289 0 289 145q0 96 -80 294zM401 1215l169 293h247l-226 -293h-190z" />
<glyph unicode="&#xfe;" horiz-adv-x="1193" d="M115 -420v1890l250 60v-531q94 92 231 92q512 0 512 -564q0 -263 -141.5 -405t-386.5 -142q-118 0 -215 47v-447h-250zM365 246q68 -55 159 -55q173 0 248.5 82.5t75.5 260.5q0 190 -75 267.5t-248 77.5q-90 0 -160 -70v-563z" />
<glyph unicode="&#xff;" horiz-adv-x="1093" d="M5 1071h259l292 -740l263 740h259l-469 -1243q-40 -107 -171.5 -177.5t-306.5 -70.5v221q289 0 289 145q0 96 -80 294zM87 1357q0 59 42 101t101 42t100.5 -42t41.5 -101t-41.5 -100.5t-100.5 -41.5t-101 41.5t-42 100.5zM707 1357q0 59 42 101t101 42t100.5 -42 t41.5 -101t-41.5 -100.5t-100.5 -41.5t-101 41.5t-42 100.5z" />
<glyph unicode="&#x131;" horiz-adv-x="611" d="M65 866v205h390v-1071h-253v866h-137z" />
<glyph unicode="&#x152;" horiz-adv-x="2055" d="M60 745q0 313 171.5 529.5t458.5 216.5q230 0 380 -105v79h925v-231h-675v-343h484v-221h-484v-439h664v-231h-914v95q-159 -120 -400 -120q-295 0 -452.5 206t-157.5 564zM330 745q0 -257 87 -398t253 -141q195 0 297.5 138t102.5 401q0 515 -380 515 q-174 0 -267 -139.5t-93 -375.5z" />
<glyph unicode="&#x153;" horiz-adv-x="1886" d="M35 538q0 245 141.5 399t373.5 154q262 0 398 -171q157 171 388 171q233 0 374 -139t141 -354q0 -46 -21 -139h-765q7 -128 88 -199t218 -71q171 0 260 89l97 -191q-131 -107 -394 -107q-259 0 -401 158q-139 -158 -383 -158t-379.5 152.5t-135.5 405.5zM295 538 q0 -354 255 -354q117 0 185.5 92t68.5 262q0 349 -254 349q-117 0 -186 -92t-69 -257zM1074 647h526q-26 235 -260 235q-214 0 -266 -235z" />
<glyph unicode="&#x178;" horiz-adv-x="1256" d="M5 1465h276l347 -625l348 625h275l-492 -864v-601h-260v601zM185 1727q0 59 42 101t101 42t100.5 -42t41.5 -101t-41.5 -100.5t-100.5 -41.5t-101 41.5t-42 100.5zM805 1727q0 59 42 101t101 42t100.5 -42t41.5 -101t-41.5 -100.5t-100.5 -41.5t-101 41.5t-42 100.5z" />
<glyph unicode="&#x2c6;" d="M161 1215l355 315h107l368 -315h-267l-157 149l-139 -149h-267z" />
<glyph unicode="&#x2da;" d="M353 1427q0 91 76 151t176 60q103 0 177.5 -59t74.5 -152t-74.5 -152t-177.5 -59q-105 0 -178.5 58t-73.5 153zM498 1426q0 -96 106 -96t106 96t-106 96q-44 0 -75 -25.5t-31 -70.5z" />
<glyph unicode="&#x2dc;" d="M241 1185q19 114 76.5 185.5t142.5 71.5q78 0 156 -38.5t100 -38.5q61 0 87 77h148q-38 -149 -93 -203t-138 -54q-62 0 -141.5 38.5t-103.5 38.5q-52 0 -89 -77h-145z" />
<glyph unicode="&#x2000;" horiz-adv-x="950" />
<glyph unicode="&#x2001;" horiz-adv-x="1900" />
<glyph unicode="&#x2002;" horiz-adv-x="950" />
<glyph unicode="&#x2003;" horiz-adv-x="1900" />
<glyph unicode="&#x2004;" horiz-adv-x="633" />
<glyph unicode="&#x2005;" horiz-adv-x="475" />
<glyph unicode="&#x2006;" horiz-adv-x="316" />
<glyph unicode="&#x2007;" horiz-adv-x="316" />
<glyph unicode="&#x2008;" horiz-adv-x="237" />
<glyph unicode="&#x2009;" horiz-adv-x="380" />
<glyph unicode="&#x200a;" horiz-adv-x="105" />
<glyph unicode="&#x2010;" horiz-adv-x="752" d="M109 476v235h529v-235h-529z" />
<glyph unicode="&#x2011;" horiz-adv-x="752" d="M109 476v235h529v-235h-529z" />
<glyph unicode="&#x2012;" horiz-adv-x="752" d="M109 476v235h529v-235h-529z" />
<glyph unicode="&#x2013;" horiz-adv-x="752" d="M63 502v201h581v-201h-581z" />
<glyph unicode="&#x2014;" horiz-adv-x="1504" d="M63 502v201h1369v-201h-1369z" />
<glyph unicode="&#x2018;" horiz-adv-x="752" d="M206 1058q0 276 284 452l83 -111q-93 -71 -114 -105t-21 -72q0 -40 49 -89t49 -105q0 -162 -160 -162q-81 0 -125.5 52t-44.5 140z" />
<glyph unicode="&#x2019;" horiz-adv-x="752" d="M179 977q93 71 114 105t21 72q0 40 -49 89t-49 105q0 162 160 162q81 0 125.5 -52t44.5 -140q0 -276 -284 -452z" />
<glyph unicode="&#x201a;" horiz-adv-x="752" d="M179 -256q93 71 114 105t21 72q0 40 -49 89t-49 105q0 162 160 162q81 0 125.5 -52t44.5 -140q0 -276 -284 -452z" />
<glyph unicode="&#x201c;" d="M206 1058q0 276 284 452l83 -111q-93 -71 -114 -105t-21 -72q0 -40 49 -89t49 -105q0 -162 -160 -162q-81 0 -125.5 52t-44.5 140zM666 1058q0 276 284 452l83 -111q-93 -71 -114 -105t-21 -72q0 -40 49 -89t49 -105q0 -162 -160 -162q-81 0 -125.5 52t-44.5 140z" />
<glyph unicode="&#x201d;" d="M179 977q93 71 114 105t21 72q0 40 -49 89t-49 105q0 162 160 162q81 0 125.5 -52t44.5 -140q0 -276 -284 -452zM639 977q93 71 114 105t21 72q0 40 -49 89t-49 105q0 162 160 162q81 0 125.5 -52t44.5 -140q0 -276 -284 -452z" />
<glyph unicode="&#x201e;" horiz-adv-x="1074" d="M129 -256q93 71 114 105t21 72q0 40 -49 89t-49 105q0 162 160 162q81 0 125.5 -52t44.5 -140q0 -276 -284 -452zM589 -256q93 71 114 105t21 72q0 40 -49 89t-49 105q0 162 160 162q81 0 125.5 -52t44.5 -140q0 -276 -284 -452z" />
<glyph unicode="&#x2022;" horiz-adv-x="1074" d="M223 574q0 132 93.5 225.5t225.5 93.5t225.5 -93.5t93.5 -225.5t-93.5 -225.5t-225.5 -93.5t-225.5 93.5t-93.5 225.5z" />
<glyph unicode="&#x2026;" horiz-adv-x="1504" d="M100 131q0 62 44 106t106 44t106 -44t44 -106t-44 -106.5t-106 -44.5t-106 44.5t-44 106.5zM602 131q0 62 44 106t106 44t106 -44t44 -106t-44 -106.5t-106 -44.5t-106 44.5t-44 106.5zM1104 131q0 62 44 106t106 44t106 -44t44 -106t-44 -106.5t-106 -44.5t-106 44.5 t-44 106.5z" />
<glyph unicode="&#x202f;" horiz-adv-x="380" />
<glyph unicode="&#x2039;" horiz-adv-x="752" d="M141 519v96l415 285v-197l-189 -140l189 -124v-197z" />
<glyph unicode="&#x203a;" horiz-adv-x="752" d="M181 242v197l189 124l-189 140v197l415 -285v-96z" />
<glyph unicode="&#x205f;" horiz-adv-x="475" />
<glyph unicode="&#x20ac;" d="M64 486v151h107q-6 84 -1 159h-106v151h127q52 236 199 382q161 161 391 161t369 -103l-98 -215q-80 87 -256 87q-255 0 -349 -312h513l-55 -151h-487q-3 -40 -3 -79q0 -41 3 -80h423l-54 -151h-341q85 -280 332 -280q200 0 295 143v-274q-118 -100 -314 -100 q-234 0 -383 142q-138 132 -185 369h-127z" />
<glyph unicode="&#x2122;" horiz-adv-x="1319" d="M121 1332v139h726l147 -454l145 454h123l122 -732h-155l-66 364l-117 -369h-103l-123 374l-61 -369h-156l98 593h-202v-594h-160v594h-218z" />
<glyph unicode="&#x2219;" horiz-adv-x="752" d="M174 741q0 75 52.5 127.5t127.5 52.5t127.5 -52.5t52.5 -127.5t-52.5 -128t-127.5 -53t-127.5 53t-52.5 128z" />
<glyph unicode="&#xe000;" horiz-adv-x="1070" d="M0 1070h1070v-1070h-1070v1070z" />
<glyph unicode="&#xfb01;" horiz-adv-x="1274" d="M35 865v206h157q8 197 116.5 318t280.5 121q89 0 217 -39l-74 -190q-82 27 -126 27q-71 0 -120.5 -61t-49.5 -150q0 -13 1 -26h703v-1071h-253v865h-446v-865h-250v865h-156zM871 1341q0 60 42.5 102.5t102.5 42.5t102.5 -42.5t42.5 -102.5t-42.5 -102.5t-102.5 -42.5 t-102.5 42.5t-42.5 102.5z" />
<glyph unicode="&#xfb02;" horiz-adv-x="1304" d="M35 865v206h157q9 208 124.5 323.5t302.5 115.5q41 0 83.5 -4.5t87.5 -13.5l88 -21l250 59v-1204q0 -198 118 -236q-58 -110 -198 -110q-170 0 -170 236v1044q-93 48 -212 48q-104 0 -166.5 -64.5t-62.5 -172.5h222v-206h-218v-865h-250v865h-156z" />
<glyph unicode="&#xfb03;" horiz-adv-x="2125" d="M1579 866v205h390v-1071h-253v866h-137zM1700 1341q0 60 42.5 102.5t102.5 42.5t102.5 -42.5t42.5 -102.5t-42.5 -102.5t-102.5 -42.5t-102.5 42.5t-42.5 102.5zM792 865v206h157q8 197 116.5 318t280.5 121q89 0 217 -39l-74 -190q-82 27 -126 27q-71 0 -120.5 -61 t-49.5 -150q0 -13 1 -26h222v-206h-218v-865h-250v865h-156zM35 865v206h157q8 197 116.5 318t280.5 121q89 0 217 -39l-74 -190q-82 27 -126 27q-71 0 -120.5 -61t-49.5 -150q0 -13 1 -26h222v-206h-218v-865h-250v865h-156z" />
<glyph unicode="&#xfb04;" horiz-adv-x="2118" d="M1692 216v1254l250 60v-1204q0 -198 118 -236q-58 -110 -198 -110q-170 0 -170 236zM792 865v206h157q8 197 116.5 318t280.5 121q89 0 217 -39l-74 -190q-82 27 -126 27q-71 0 -120.5 -61t-49.5 -150q0 -13 1 -26h222v-206h-218v-865h-250v865h-156zM35 865v206h157 q8 197 116.5 318t280.5 121q89 0 217 -39l-74 -190q-82 27 -126 27q-71 0 -120.5 -61t-49.5 -150q0 -13 1 -26h222v-206h-218v-865h-250v865h-156z" />
</font>
</defs>
</svg>
